<?xml version="1.0" standalone="no"?>
<!DOCTYPE svg PUBLIC "-//W3C//DTD SVG 1.1//EN" "http://www.w3.org/Graphics/SVG/1.1/DTD/svg11.dtd" >
<svg xmlns="http://www.w3.org/2000/svg">
<metadata>Generated by IcoMoon</metadata>
<defs>
<font id="wing-icon" horiz-adv-x="1024">
<font-face units-per-em="1024" ascent="960" descent="-64" />
<missing-glyph horiz-adv-x="1024" />
<glyph unicode="&#x20;" horiz-adv-x="512" d="" />
<glyph unicode="&#xe900;" glyph-name="important1" horiz-adv-x="970" d="M954.95 407.579c0 257.684-212.216 469.895-469.897 469.895-259.579 0-469.895-212.211-469.895-469.895 0-259.579 210.316-469.897 469.895-469.897 257.682 0 469.897 210.319 469.897 469.897zM485.053 312.843c47.369 0 87.159-39.79 87.159-87.159 0-49.265-39.79-87.159-87.159-87.159-49.263 0-87.158 37.893-87.158 87.159 0 47.368 37.895 87.159 87.158 87.159zM401.684 625.474c-1.894 13.263 9.474 24.632 22.737 24.632h119.366c13.263 0 24.635-11.369 22.738-24.632l-13.263-257.685c-1.892-13.263-11.366-20.841-22.735-20.841h-92.842c-11.368 0-20.842 7.578-22.737 20.841l-13.263 257.685z" />
<glyph unicode="&#xe901;" glyph-name="arrow_to_bottom1" horiz-adv-x="887" d="M802.133-26.665h-716.8c-29.867 0-51.2 21.333-51.2 51.2v51.2c0 27.73 21.333 51.2 51.2 51.2h716.8c27.73 0 51.2-23.47 51.2-51.2v-51.2c0-29.867-23.47-51.2-51.2-51.2zM659.2 570.667c19.2 19.199 53.333 19.199 72.537 0l36.263-36.267c19.197-19.199 19.197-51.2 0-72.533l-290.133-287.998c-19.2-21.333-51.2-21.333-70.4 0l-290.133 287.998c-19.2 19.201-19.2 53.334 0 72.533l36.267 36.267c19.2 19.199 53.333 19.199 72.533 0l140.8-140.8v448c0 27.733 21.333 51.2 51.2 51.2h51.2c27.733 0 51.2-23.467 51.2-51.2v-448l138.667 140.8z" />
<glyph unicode="&#xe902;" glyph-name="calendar1" horiz-adv-x="896" d="M0 32v544h896v-544c0-53-43-96-96-96h-704c-53 0-96 43-96 96zM640 424v-80c0-13.199 10.801-24 24-24h80c13.199 0 24 10.801 24 24v80c0 13.199-10.801 24-24 24h-80c-13.199 0-24-10.801-24-24zM640 168v-80c0-13.199 10.801-24 24-24h80c13.199 0 24 10.801 24 24v80c0 13.199-10.801 24-24 24h-80c-13.199 0-24-10.801-24-24zM384 424v-80c0-13.199 10.801-24 24-24h80c13.199 0 24 10.801 24 24v80c0 13.199-10.801 24-24 24h-80c-13.199 0-24-10.801-24-24zM384 168v-80c0-13.199 10.801-24 24-24h80c13.199 0 24 10.801 24 24v80c0 13.199-10.801 24-24 24h-80c-13.199 0-24-10.801-24-24zM128 424v-80c0-13.199 10.801-24 24-24h80c13.199 0 24 10.801 24 24v80c0 13.199-10.801 24-24 24h-80c-13.199 0-24-10.801-24-24zM128 168v-80c0-13.199 10.801-24 24-24h80c13.199 0 24 10.801 24 24v80c0 13.199-10.801 24-24 24h-80c-13.199 0-24-10.801-24-24zM800 832c53 0 96-43 96-96v-96h-896v96c0 53 43 96 96 96h96v96c0 17.6 14.4 32 32 32h64c17.6 0 32-14.4 32-32v-96h256v96c0 17.6 14.4 32 32 32h64c17.6 0 32-14.4 32-32v-96h96z" />
<glyph unicode="&#xe903;" glyph-name="arrow_to_down1" horiz-adv-x="896" d="M826.2 515l44.4-44.4c18.801-18.799 18.801-49.199 0-67.799l-388.6-388.8c-18.801-18.801-49.199-18.801-67.801 0l-388.798 388.8c-18.801 18.799-18.801 49.199 0 67.799l44.4 44.4c19 19 50 18.6 68.6-0.801l229.6-241v574.8c0 26.6 21.4 48 48 48h64c26.6 0 48-21.4 48-48v-574.8l229.6 241c18.6 19.602 49.6 20 68.6 0.801z" />
<glyph unicode="&#xe904;" glyph-name="file_upload1" d="M592 192h-160c-26.6 0-48 21.4-48 48v336h-175.4c-35.6 0-53.4 43-28.199 68.199l304.2 304.4c15 15 39.6 15 54.6 0l304.4-304.4c25.201-25.199 7.4-68.199-28.199-68.199h-175.4v-336c0-26.6-21.4-48-48-48zM1024 208v-224c0-26.6-21.4-48-48-48h-928c-26.6 0-48 21.4-48 48v224c0 26.6 21.4 48 48 48h272v-16c0-61.801 50.199-112 112-112h160c61.801 0 112 50.199 112 112v16h272c26.6 0 48-21.4 48-48zM776 32c0 22-18 40-40 40s-40-18-40-40 18-40 40-40 40 18 40 40zM904 32c0 22-18 40-40 40s-40-18-40-40 18-40 40-40 40 18 40 40z" />
<glyph unicode="&#xe905;" glyph-name="next_tryangle1" horiz-adv-x="1250" d="M624.814 283.119l-624.814 329.763h1249.627z" />
<glyph unicode="&#xe906;" glyph-name="error1" d="M1008 448c0-273.984-222.080-496-496-496s-496 222.016-496 496c0 273.824 222.080 496 496 496s496-222.176 496-496zM512 348c-50.816 0-92-41.184-92-92s41.184-92 92-92 92 41.184 92 92-41.184 92-92 92zM424.64 678.688l14.848-272c0.704-12.736 11.232-22.688 23.968-22.688h97.088c12.736 0 23.264 9.952 23.968 22.688l14.848 272c0.736 13.76-10.208 25.312-23.968 25.312h-126.784c-13.76 0-24.704-11.552-23.968-25.312z" />
<glyph unicode="&#xe907;" glyph-name="search1" d="M1016.992 22.208c9.408-9.408 9.408-24.608 0-34.016l-45.184-45.184c-9.408-9.408-24.608-9.408-34.016 0l-242.816 242.784c-4.384 4.608-7.008 10.592-7.008 16.992v26.4c-72.992-63.008-168-101.184-272-101.184-229.792 0-416 186.208-416 416s186.208 416 416 416 416-186.208 416-416c0-104-38.208-199.008-101.184-272h26.4c6.4 0 12.384-2.4 16.992-7.008zM416 224c176.8 0 320 143.2 320 320s-143.2 320-320 320-320-143.2-320-320 143.2-320 320-320z" />
<glyph unicode="&#xe908;" glyph-name="launch_link111111" d="M995.2 960c15.904 0 28.8-12.896 28.8-28.8l-0.352-326.4c0-15.904-12.896-28.8-28.8-28.8h-66.624c-15.904 0-28.8 12.896-28.8 28.8 0 0.192 0 0.384 0 0.576l5.44 147.264-4.128 4.128-557.728-557.728c-4.352-4.352-10.368-7.072-16.992-7.072s-12.64 2.688-16.992 7.072l-46.016 46.016c-4.352 4.352-7.072 10.368-7.072 16.992s2.688 12.64 7.072 16.992l557.728 557.728-4.128 4.128-147.264-5.44c-0.192 0-0.384 0-0.576 0-15.904 0-28.8 12.896-28.8 28.8v66.624c0 15.904 12.896 28.8 28.8 28.8zM864 384c17.664 0 32-14.336 32-32v-320c0-52.992-43.008-96-96-96h-704c-52.992 0-96 43.008-96 96v704c0 52.992 43.008 96 96 96h320c17.664 0 32-14.336 32-32v-32c0-17.664-14.336-32-32-32h-308c-6.624 0-12-5.376-12-12v-680c0-6.624 5.376-12 12-12h680c6.624 0 12 5.376 12 12v308c0 17.664 14.336 32 32 32h32z" />
<glyph unicode="&#xe909;" glyph-name="minus111111" horiz-adv-x="768" d="M736 512c17.664 0 32-14.304 32-32v-64c0-17.664-14.336-32-32-32h-704c-17.664 0-32 14.336-32 32v64c0 17.696 14.336 32 32 32h704z" />
<glyph unicode="&#xe90a;" glyph-name="plus111111" horiz-adv-x="768" d="M736 512c17.664 0 32-14.304 32-32v-64c0-17.664-14.336-32-32-32h-288v-288c0-17.664-14.304-32-32-32h-64c-17.696 0-32 14.336-32 32v288h-288c-17.664 0-32 14.336-32 32v64c0 17.696 14.336 32 32 32h288v288c0 17.696 14.304 32 32 32h64c17.696 0 32-14.304 32-32v-288h288z" />
<glyph unicode="&#xe90b;" glyph-name="phone_square_alt_secondary1" horiz-adv-x="896" d="M800 896c52.992 0 96-43.008 96-96v-704c0-52.992-43.008-96-96-96h-704c-52.992 0-96 43.008-96 96v704c0 52.992 43.008 96 96 96h704zM767.232 281.248c0.512 2.176 0.8 4.416 0.8 6.752 0 12.352-7.488 22.976-18.176 27.584l-140 60c-3.616 1.568-7.616 2.432-11.808 2.432-9.376 0-17.728-4.288-23.232-11.040l-62.016-75.776c-97.408 45.952-175.616 124.16-221.568 221.568l75.776 62.016c6.72 5.504 11.008 13.888 11.008 23.232 0 4.192-0.864 8.16-2.4 11.808l-60 140c-4.576 10.688-15.2 18.176-27.552 18.176-2.336 0-4.608-0.256-6.784-0.768l-130.016-30.016c-13.312-3.072-23.264-14.976-23.264-29.216 0-320.576 260-580 580-580v0.032c14.24 0 26.176 9.92 29.248 23.232z" />
<glyph unicode="&#xe90c;" glyph-name="arrow_down111111" d="M478.2 255.5l-272 272c-18.8 18.8-18.8 49.2 0 67.8l45.2 45.2c18.8 18.8 49.2 18.8 67.8 0l192.8-192.8 192.8 192.8c18.8 18.8 49.2 18.8 67.8 0l45.2-45.2c18.8-18.8 18.8-49.2 0-67.8l-272-272c-18.4-18.8-48.8-18.8-67.6 0z" />
<glyph unicode="&#xe90d;" glyph-name="arrow_left111111" d="M319.388 482l272 272c18.8 18.8 49.2 18.8 67.8 0l45.2-45.2c18.8-18.8 18.8-49.2 0-67.8l-192.6-193 192.8-192.8c18.8-18.8 18.8-49.2 0-67.8l-45.2-45.4c-18.8-18.8-49.2-18.8-67.8 0l-272 272c-19 18.8-19 49.2-0.2 68z" />
<glyph unicode="&#xe90e;" glyph-name="arrow_right111111" d="M704.512 414l-272-272c-18.8-18.8-49.2-18.8-67.8 0l-45.2 45.2c-18.8 18.8-18.8 49.2 0 67.8l192.8 192.8-192.8 192.8c-18.8 18.8-18.8 49.2 0 67.8l45 45.6c18.8 18.8 49.2 18.8 67.8 0l272-272c19-18.8 19-49.2 0.2-68z" />
<glyph unicode="&#xe90f;" glyph-name="arrow_up_circle111111" d="M512.399-64c-0.237 0-0.517-0.001-0.798-0.001-282.99 0-512.399 229.409-512.399 512.399s229.409 512.399 512.399 512.399c282.99 0 512.399-229.409 512.399-512.399 0-0.28 0-0.561-0.001-0.841v0.044c-0.904-282.185-229.416-510.696-511.514-511.601h-0.087zM512.399 866.619c-231.417 0-419.018-187.601-419.018-419.018s187.601-419.018 419.018-419.018c231.417 0 419.018 187.601 419.018 419.018v0c0 231.417-187.601 419.018-419.018 419.018v0zM698.363 401.309c-12.781 0.006-24.35 5.19-32.723 13.568l-153.241 153.241-153.241-153.241c-8.033-6.574-18.408-10.558-29.713-10.558-26.007 0-47.090 21.083-47.090 47.090 0 11.305 3.984 21.68 10.624 29.797l-0.067-0.084 185.964 185.964c8.504 8.418 20.206 13.618 33.122 13.618s24.619-5.201 33.126-13.622l185.96-185.96c8.192-8.462 13.241-20.010 13.241-32.737 0-25.611-20.446-46.447-45.906-47.075l-0.058-0.001zM512.399 215.345c-0.237-0.004-0.517-0.007-0.798-0.007-25.566 0-46.292 20.725-46.292 46.292 0 0.002 0 0.005 0 0.007v0 372.726c3.132 23.242 22.841 40.972 46.691 40.972s43.559-17.731 46.664-40.73l0.027-0.243v-372.726c0-25.566-20.725-46.292-46.292-46.292v0z" />
<glyph unicode="&#xe910;" glyph-name="ok111111" d="M512-64c-282.77 0-512 229.23-512 512s229.23 512 512 512c282.77 0 512-229.23 512-512v0c0-282.77-229.23-512-512-512v0zM512 832c-212.077 0-384-171.923-384-384s171.923-384 384-384c212.077 0 384 171.923 384 384v0c0 212.077-171.923 384-384 384v0z" />
<glyph unicode="&#xe911;" glyph-name="eSIM1" d="M0 504.875h455.125v455.125h-455.125zM113.792 846.208h227.541v-227.541h-227.541zM0-64h455.125v455.125h-455.125zM113.792 277.333h227.541v-227.541h-227.541zM568.875 960v-455.125h455.125v455.125zM910.208 618.667h-227.541v227.541h227.541zM910.251 49.749h113.792v-113.792h-113.792v113.792zM568.918 391.082h113.792v-113.792h-113.792v113.792zM682.667 277.333h113.792v-113.792h-113.792v113.792zM568.918 163.541h113.792v-113.792h-113.792v113.792zM682.667 49.749h113.792v-113.792h-113.792v113.792zM796.459 163.541h113.792v-113.792h-113.792v113.792zM796.459 391.082h113.792v-113.792h-113.792v113.792zM910.251 277.333h113.792v-113.792h-113.792v113.792z" />
<glyph unicode="&#xe912;" glyph-name="picture_as_pdf111111" d="M491.8 447.8c-10 32-9.8 93.8-4 93.8 16.8 0 15.2-73.8 4-93.8zM488.4 353.4c-15.4-40.4-34.6-86.6-56.8-125.4 36.6 14 78 34.4 125.8 43.8-25.4 19.2-49.8 46.8-69 81.6zM300.2 103.8c0-1.6 26.4 10.8 69.8 80.4-13.4-12.6-58.2-49-69.8-80.4zM624 640h272v-656c0-26.6-21.4-48-48-48h-672c-26.6 0-48 21.4-48 48v928c0 26.6 21.4 48 48 48h400v-272c0-26.4 21.6-48 48-48zM608 296.4c-40 24.4-66.6 58-85.4 107.6 9 37 23.2 93.2 12.4 128.4-9.4 58.8-84.8 53-95.6 13.6-10-36.6-0.8-88.2 16.2-154-23.2-55.2-57.4-129.2-81.6-171.6-0.2 0-0.2-0.2-0.4-0.2-54.2-27.8-147.2-89-109-136 11.2-13.8 32-20 43-20 35.8 0 71.4 36 122.2 123.6 51.6 17 108.2 38.2 158 46.4 43.4-23.6 94.2-39 128-39 58.4 0 62.4 64 39.4 86.8-27.8 27.2-108.6 19.4-147.2 14.4zM882 750l-196 196c-9 9-21.2 14-34 14h-12v-256h256v12.2c0 12.6-5 24.8-14 33.8zM733.8 239.4c8.2 5.4-5 23.8-85.6 18 74.2-31.6 85.6-18 85.6-18z" />
<glyph unicode="&#xe913;" glyph-name="ng111111" d="M614.22 448l307.827 307.827c13.592 13.132 22.023 31.526 22.023 51.886 0 39.835-32.294 72.121-72.121 72.121-20.36 0-38.755-8.432-51.861-22.005l-0.024-0.025-307.827-307.827-307.827 307.827c-13.132 13.592-31.526 22.023-51.886 22.023-39.835 0-72.121-32.294-72.121-72.121 0-20.36 8.432-38.755 22.005-51.861l0.025-0.024 307.827-307.827-307.827-307.827c-12.524-12.955-20.235-30.624-20.235-50.097 0-39.835 32.294-72.121 72.121-72.121 19.473 0 37.142 7.72 50.123 20.259l-0.025-0.024 307.827 307.827 307.827-307.827c12.955-12.524 30.624-20.235 50.097-20.235 39.835 0 72.121 32.294 72.121 72.121 0 19.473-7.72 37.142-20.259 50.123l0.024-0.025z" />
<glyph unicode="&#xe914;" glyph-name="launch111111" d="M864 320h-64c-17.673 0-32-14.327-32-32v0-224h-640v640h288c17.673 0 32 14.327 32 32v0 64c0 17.673-14.327 32-32 32v0h-320c-53.019 0-96-42.981-96-96v0-704c0-53.019 42.981-96 96-96v0h704c53.019 0 96 42.981 96 96v0 256c0 17.673-14.327 32-32 32v0zM976 960h-256c-42.74 0-64.1-51.82-34-82l71.46-71.46-487.46-487.28c-8.721-8.692-14.118-20.716-14.118-34s5.396-25.308 14.116-33.999l0.001-0.001 45.34-45.26c8.692-8.721 20.716-14.118 34-14.118s25.308 5.396 33.999 14.116l487.221 487.361 71.44-71.36c30-30 82-9 82 34v256c0 26.51-21.49 48-48 48v0z" />
<glyph unicode="&#xe915;" glyph-name="close1" d="M50.196 120.34c-17.678-16.581-28.691-40.087-28.691-66.168s11.013-49.584 28.642-66.12l0.048-0.045c17.192-16.354 40.506-26.416 66.168-26.416s48.973 10.062 66.207 26.453l-0.039-0.037 329.926 326.3 327.206-327.206c17.129-17.242 40.855-27.915 67.073-27.915 52.209 0 94.534 42.325 94.534 94.534 0 25.994-10.491 49.535-27.466 66.624l0.005-0.005-329.017 327.206 329.017 329.017c17.678 16.581 28.691 40.087 28.691 66.168s-11.013 49.584-28.642 66.12l-0.048 0.045c-16.665 18.529-40.72 30.131-67.484 30.131-26.334 0-50.045-11.231-66.604-29.164l-0.056-0.061-327.206-328.112-329.017 328.112c-17.134 16.083-40.259 25.965-65.688 25.965-25.893 0-49.394-10.244-66.672-26.9l0.031 0.030c-17.678-16.581-28.691-40.087-28.691-66.168s11.013-49.584 28.642-66.12l0.048-0.045 328.112-329.017z" />
<glyph unicode="&#xe916;" glyph-name="arrow_up111111" d="M546 640.612l272-272c18.8-18.8 18.8-49.2 0-67.8l-45.2-45.2c-18.8-18.8-49.2-18.8-67.8 0l-193 192.6-192.8-192.8c-18.8-18.8-49.2-18.8-67.8 0l-45.4 45.2c-18.8 18.8-18.8 49.2 0 67.8l272 272c18.8 19 49.2 19 68 0.2z" />
<glyph unicode="&#xe917;" glyph-name="trash111111" d="M185.125 795.429l60.709-747.52c0-0.022 0-0.047 0-0.073 0-41.567 33.697-75.264 75.264-75.264 0.026 0 0.051 0 0.077 0h362.858c0.022 0 0.047 0 0.073 0 41.567 0 75.264 33.697 75.264 75.264 0 0.026 0 0.051 0 0.077v-0.004l59.611 747.52zM343.552 114.030l-17.262 599.113h47.543l17.627-599.113zM524.288 114.030h-46.226v599.113h46.299zM658.798 114.030h-47.909l17.481 599.113h47.543zM779.118 888.027h-92.818l-67.657 59.173c-9.027 7.917-20.906 12.778-33.918 12.873h-166.639c-13.205-0.041-25.265-4.908-34.516-12.929l0.066 0.056-67.657-59.173h-92.745c-45.275 0-77.166-21.943-77.166-66.853h709.486c0.512 45.202-31.378 66.853-76.434 66.853z" />
<glyph unicode="&#xe918;" glyph-name="add_circle_inverse111111" d="M512 960c-282.77 0-512-229.23-512-512s229.23-512 512-512c282.77 0 512 229.23 512 512v0c0 282.77-229.23 512-512 512v0zM734.764 408.62h-183.384v-183.384c0-21.749-17.631-39.38-39.38-39.38s-39.38 17.631-39.38 39.38v0 183.384h-183.384c-21.749 0-39.38 17.631-39.38 39.38s17.631 39.38 39.38 39.38v0h183.384v183.384c0 21.749 17.631 39.38 39.38 39.38s39.38-17.631 39.38-39.38v0-183.384h183.384c21.749 0 39.38-17.631 39.38-39.38s-17.631-39.38-39.38-39.38v0z" />
<glyph unicode="&#xe919;" glyph-name="check_circle111111" d="M426 234l384 384-60 62-324-324-152 152-60-60zM512 874q176 0 301-125t125-301-125-301-301-125-301 125-125 301 125 301 301 125z" />
<glyph unicode="&#xe91a;" glyph-name="chevron_circle_down111111" d="M1008 448c0-274-222-496-496-496s-496 222-496 496 222 496 496 496 496-222 496-496zM546 220.2l271 271c18.8 18.8 18.8 49.2 0 67.8l-34 34c-18.8 18.8-49.2 18.8-67.8 0l-203.2-203.2-203.2 203.2c-18.8 18.8-49.2 18.8-67.8 0l-34-34c-18.8-18.8-18.8-49.2 0-67.8l271-271c18.8-18.8 49.2-18.8 68 0z" />
<glyph unicode="&#xe91b;" glyph-name="help111111" d="M515.488 928.013c187.521 0 316.513-104.001 316.513-253.504 0-99.009-48-167.49-140.511-222.017-87.009-50.494-116.511-87.489-116.511-151.487v-39.489h-173.473l-1.504 43.007c-8.511 103.007 27.489 167.010 118.016 219.999 84.512 50.494 120 82.496 120 144.514s-60 107.49-134.4 107.49c-2.25 0.144-4.882 0.223-7.53 0.223-68.715 0-124.633-54.789-126.452-123.064l-0.004-0.167h-177.634c3.489 160.993 122.494 274.496 323.49 274.496zM383.998 71.020c-0.055 1.29-0.089 2.799-0.089 4.32 0 59.275 48.052 107.327 107.327 107.327s107.327-48.052 107.327-107.327c0-59.275-48.052-107.327-107.327-107.327-0.083 0-0.163 0-0.246 0h0.014c-0.682-0.017-1.481-0.027-2.286-0.027-57.246 0-103.766 45.928-104.722 102.942l-0.001 0.090z" />
<glyph unicode="&#xe91c;" glyph-name="call111111" d="M979.437 167.23c-50.584 44.185-107.748 82.963-169.33 114.31l-4.732 2.186c-52.187 25.035-71.272 24.551-108.21-2.072-30.853-22.039-50.601-42.887-85.995-35.261s-105.123 60.429-172.782 127.823-120.33 137.388-127.823 172.782 13.224 55.272 35.261 85.995c26.445 36.936 27.372 56.021 2.072 108.21-33.384 66.414-72.236 123.654-117.464 175.158l0.793-0.921c-37.951 37.951-46.501 29.665-67.218 22.039-23.77-10.062-44.049-21.041-63.132-33.68l1.424 0.887c-31.985-18.398-57.407-45.039-73.825-77.056l-0.488-1.048c-14.723-31.779-31.779-90.93 55.009-245.333 67.321-122.944 147.356-228.578 240.594-320.904l0.11-0.109 0.528-0.528c92.471-93.281 198.097-173.309 313.913-237.118l7.1-3.586c154.27-86.787 213.598-69.729 245.333-55.009 33.229 16.725 59.959 42.194 77.765 73.414l0.472 0.899c11.752 17.659 22.731 37.939 31.841 59.209l0.952 2.5c7.493 20.717 16.044 29.267-22.17 67.218z" />
<glyph unicode="&#xe91d;" glyph-name="copy111111" d="M673.664 832h-431.147c-39.633-0.121-71.73-32.217-71.851-71.839v-503.052h71.851v503.040h431.147zM781.44 688.299h-395.179c-39.667-0.097-71.796-32.227-71.893-71.884v-503.006c0.121-39.633 32.217-71.73 71.839-71.851h395.233c39.652 0.097 71.772 32.202 71.893 71.839v503.009c-0.097 39.652-32.202 71.772-71.839 71.893h-0.012zM781.44 113.408h-395.179v502.997h395.221z" />
<glyph unicode="&#xe91e;" glyph-name="help_circle111111" d="M1008 448c0-273.994-222.086-496-496-496s-496 222.006-496 496c0 273.834 222.086 496 496 496s496-222.166 496-496zM525.31 780c-108.994 0-178.51-45.914-233.098-127.516-7.072-10.572-4.706-24.83 5.43-32.516l69.398-52.62c10.41-7.894 25.242-6.016 33.33 4.244 35.728 45.316 60.226 71.594 114.606 71.594 40.858 0 91.396-26.296 91.396-65.916 0-29.952-24.726-45.334-65.068-67.952-47.048-26.374-109.304-59.2-109.304-141.318v-8c0-13.254 10.746-24 24-24h112c13.254 0 24 10.746 24 24v2.666c0 56.924 166.372 59.294 166.372 213.334 0 116.004-120.33 204-233.062 204zM512 284c-50.73 0-92-41.27-92-92 0-50.728 41.27-92 92-92s92 41.272 92 92c0 50.73-41.27 92-92 92z" />
<glyph unicode="&#xe91f;" glyph-name="phone_android111111" d="M736 192v598h-448v-598h448zM598 64v42h-172v-42h172zM682 918q52 0 90-38t38-90v-684q0-52-38-90t-90-38h-340q-52 0-90 38t-38 90v684q0 52 38 90t90 38h340z" />
<glyph unicode="&#xe920;" glyph-name="phone_iphone111111" d="M682 192v598h-384v-598h384zM490 22q26 0 45 19t19 45-19 45-45 19-45-19-19-45 19-45 45-19zM662 918q44 0 75-32t31-76v-724q0-44-31-76t-75-32h-342q-44 0-75 32t-31 76v724q0 44 31 76t75 32h342z" />
<glyph unicode="&#xe921;" glyph-name="image111111" d="M159.014 309.425h469.425c7.566 0 13.699 6.133 13.699 13.699 0 3.099-1.029 5.958-2.765 8.254l0.025-0.034-234.74 377.315c-2.483 3.584-6.573 5.901-11.205 5.901s-8.723-2.318-11.176-5.856l-0.029-0.045-234.521-377.589c-1.526-2.19-2.439-4.906-2.439-7.836 0-7.597 6.136-13.762 13.722-13.808h0.004zM636.822 452.164l86.137-136.986c2.402-3.559 6.405-5.878 10.953-5.918h130.965c7.566 0 13.699 6.133 13.699 13.699 0 3.099-1.029 5.958-2.765 8.254l0.025-0.034-151.397 215.452c-2.483 3.584-6.573 5.901-11.205 5.901s-8.723-2.318-11.176-5.856l-0.029-0.045-65.479-79.014c-1.351-2.133-2.153-4.73-2.153-7.515 0-2.961 0.907-5.711 2.459-7.986l-0.032 0.049zM746.082 664.877c34.945 3.664 61.947 32.967 61.947 68.577 0 38.070-30.862 68.932-68.932 68.932-35.61 0-64.913-27.002-68.551-61.648l-0.025-0.299c-0.21-2.021-0.329-4.367-0.329-6.74 0-38.191 30.96-69.151 69.151-69.151 2.374 0 4.719 0.12 7.031 0.353l-0.291-0.024zM945.205 960h-866.411c-0.033 0-0.071 0-0.11 0-43.456 0-78.685-35.228-78.685-78.685 0-0.039 0-0.077 0-0.116v0.006-866.411c0-0.033 0-0.071 0-0.11 0-43.456 35.228-78.685 78.685-78.685 0.039 0 0.077 0 0.116 0h866.405c0.033 0 0.071 0 0.11 0 43.456 0 78.685 35.228 78.685 78.685 0 0.019 0 0.039 0 0.058v-0.003 866.466c0 0.033 0 0.071 0 0.11 0 43.456-35.228 78.685-78.685 78.685-0.039 0-0.077 0-0.116 0h0.006zM938.575 270.795c-0.031-10.852-8.82-19.64-19.668-19.671h-813.811c-10.852 0.031-19.64 8.82-19.671 19.668v584.113c0.031 10.852 8.82 19.64 19.668 19.671h814.030c10.852-0.031 19.64-8.82 19.671-19.668v-584.113z" />
<glyph unicode="&#xe922;" glyph-name="camera111111" d="M1024 672v-576c0-53-43-96-96-96h-832c-53 0-96 43-96 96v576c0 53 43 96 96 96h176l24.6 65.8c14 37.4 49.8 62.2 89.8 62.2h251c40 0 75.8-24.8 89.8-62.2l24.8-65.8h176c53 0 96-43 96-96zM752 384c0 132.4-107.6 240-240 240s-240-107.6-240-240 107.6-240 240-240 240 107.6 240 240zM688 384c0-97-79-176-176-176s-176 79-176 176 79 176 176 176 176-79 176-176z" />
<glyph unicode="&#xe923;" glyph-name="dot111111" d="M605.091 453.818c0-64.266-52.098-116.364-116.364-116.364s-116.364 52.098-116.364 116.364c0 64.266 52.098 116.364 116.364 116.364s116.364-52.098 116.364-116.364z" />
<glyph unicode="&#xe924;" glyph-name="eye111111" horiz-adv-x="1152" d="M1145.038 477.2c-108.46 211.62-323.18 354.8-569.040 354.8s-460.64-143.28-569.040-354.82c-4.387-8.495-6.959-18.542-6.959-29.19s2.572-20.695 7.129-29.553l-0.17 0.363c108.46-211.62 323.18-354.8 569.040-354.8s460.64 143.28 569.040 354.82c4.387 8.495 6.959 18.542 6.959 29.19s-2.572 20.695-7.129 29.553l0.17-0.363zM575.998 160c-159.058 0-288 128.942-288 288s128.942 288 288 288c159.058 0 288-128.942 288-288v0c0-0.041 0-0.091 0-0.14 0-158.981-128.879-287.86-287.86-287.86-0.049 0-0.098 0-0.147 0h0.007zM575.998 640c-18.13-0.261-35.516-3.012-51.969-7.926l1.349 0.346c11.631-15.661 18.62-35.374 18.62-56.72 0-52.854-42.846-95.7-95.7-95.7-21.346 0-41.059 6.988-56.977 18.802l0.257-0.182c-4.247-15.047-6.689-32.328-6.689-50.179 0-105.796 85.764-191.56 191.56-191.56s191.56 85.764 191.56 191.56c0 105.796-85.764 191.56-191.56 191.56-0.159 0-0.317 0-0.476-0.001h0.025z" />
<glyph unicode="&#xe925;" glyph-name="eye_off111111" horiz-adv-x="1280" d="M639.994 160c-151.7 0-274.5 117.42-285.8 266.22l-209.8 162.14c-27.58-34.6-52.96-71.18-73.44-111.18-4.387-8.495-6.959-18.542-6.959-29.19s2.572-20.695 7.129-29.553l-0.17 0.363c108.46-211.62 323.18-354.8 569.040-354.8 53.82 0 105.74 8 155.78 20.92l-103.78 80.3c-15.55-3.151-33.498-5.043-51.857-5.219l-0.143-0.001zM1267.634 43.8l-221.1 170.88c66.318 56.14 120.801 123.919 160.761 200.48l1.739 3.66c4.387 8.495 6.959 18.542 6.959 29.19s-2.572 20.695-7.129 29.553l0.17-0.363c-108.46 211.62-323.18 354.8-569.040 354.8-108.057-0.135-209.564-28.059-297.794-77.006l3.154 1.606-254.44 196.66c-5.365 4.206-12.212 6.745-19.652 6.745-10.241 0-19.358-4.81-25.215-12.295l-0.053-0.070-39.26-50.54c-4.2-5.363-6.736-12.205-6.736-19.639 0-10.236 4.806-19.35 12.286-25.208l0.070-0.053 1176.72-909.46c5.365-4.206 12.212-6.745 19.652-6.745 10.241 0 19.358 4.81 25.215 12.295l0.053 0.070 39.28 50.54c4.196 5.361 6.728 12.2 6.728 19.63 0 10.242-4.812 19.36-12.298 25.217l-0.070 0.053zM900.194 327.8l-78.6 60.76c6.321 17.675 10.107 38.068 10.399 59.306l0.001 0.134c0.010 0.742 0.016 1.618 0.016 2.496 0 104.669-84.851 189.52-189.52 189.52-18.929 0-37.21-2.775-54.458-7.941l1.342 0.345c11.598-15.572 18.581-35.176 18.62-56.411v-0.009c-0.328-7.253-1.432-14.098-3.233-20.655l0.153 0.655-147.22 113.78c48.981 41.15 112.714 66.167 182.289 66.22h0.011c0.047 0 0.104 0 0.16 0 158.97 0 287.84-128.87 287.84-287.84 0-0.056 0-0.112 0-0.168v0.008c0-43.26-10.58-83.58-27.8-120.22z" />
<glyph unicode="&#xe926;" glyph-name="chevron_circle_left111111" d="M512-48c-274 0-496 222-496 496s222 496 496 496 496-222 496-496-222-496-496-496zM284.2 414l271-271c18.8-18.8 49.2-18.8 67.8 0l34 34c18.8 18.8 18.8 49.2 0 67.8l-203.2 203.2 203.2 203.2c18.8 18.8 18.8 49.2 0 67.8l-34 34c-18.8 18.8-49.2 18.8-67.8 0l-271-271c-18.8-18.8-18.8-49.2 0-68z" />
<glyph unicode="&#xe927;" glyph-name="chevron_circle_right111111" d="M512 944c274 0 496-222 496-496s-222-496-496-496-496 222-496 496 222 496 496 496zM739.8 482l-271 271c-18.8 18.8-49.2 18.8-67.8 0l-34-34c-18.8-18.8-18.8-49.2 0-67.8l203.2-203.2-203.2-203.2c-18.8-18.8-18.8-49.2 0-67.8l34-34c18.8-18.8 49.2-18.8 67.8 0l271 271c18.8 18.8 18.8 49.2 0 68z" />
<glyph unicode="&#xe928;" glyph-name="chevron_circle_up111111" d="M16 448c0 274 222 496 496 496s496-222 496-496-222-496-496-496-496 222-496 496zM478 675.8l-271-271c-18.8-18.8-18.8-49.2 0-67.8l34-34c18.8-18.8 49.2-18.8 67.8 0l203.2 203.2 203.2-203.2c18.8-18.8 49.2-18.8 67.8 0l34 34c18.8 18.8 18.8 49.2 0 67.8l-271 271c-18.8 18.8-49.2 18.8-68 0z" />
<glyph unicode="&#xe929;" glyph-name="add_circle111111" d="M512 944c-274 0-496-222-496-496s222-496 496-496 496 222 496 496-222 496-496 496zM800 392c0-13.2-10.8-24-24-24h-184v-184c0-13.2-10.8-24-24-24h-112c-13.2 0-24 10.8-24 24v184h-184c-13.2 0-24 10.8-24 24v112c0 13.2 10.8 24 24 24h184v184c0 13.2 10.8 24 24 24h112c13.2 0 24-10.8 24-24v-184h184c13.2 0 24-10.8 24-24v-112z" />
<glyph unicode="&#xe92a;" glyph-name="arrow_drop_down111111" d="M254.7 616.65h514.6c35.6 0 53.4-43 28.2-68.2l-257.2-257.4c-15.6-15.6-41-15.6-56.6 0l-257.2 257.4c-25.2 25.2-7.4 68.2 28.2 68.2z" />
<glyph unicode="&#xe92b;" glyph-name="local_grocery_store111111" d="M726 192q34 0 59-26t25-60-25-59-59-25-60 25-26 59 26 60 60 26zM42 874h140l40-84h632q18 0 30-13t12-31q0-2-6-20l-152-276q-24-44-74-44h-318l-38-70-2-6q0-10 10-10h494v-86h-512q-34 0-59 26t-25 60q0 20 10 40l58 106-154 324h-86v84zM298 192q34 0 60-26t26-60-26-59-60-25-59 25-25 59 25 60 59 26z" />
<glyph unicode="&#xe92c;" glyph-name="file_pdf1" horiz-adv-x="768" d="M363.808 447.808c-10.016 32-9.792 93.792-4 93.792 16.8 0 15.2-73.792 4-93.792zM360.384 353.408c19.2-34.816 43.616-62.4 68.992-81.6-47.808-9.408-89.216-29.792-125.792-43.808 22.208 38.816 41.408 84.992 56.8 125.408zM172.192 103.808c11.616 31.392 56.416 67.808 69.792 80.384-43.392-69.6-69.792-82.016-69.792-80.384zM496 640h272v-656c0-26.592-21.408-48-48-48h-672c-26.592 0-48 21.408-48 48v928c0 26.592 21.408 48 48 48h400v-272c0-26.4 21.6-48 48-48zM480 296.384c-40 24.384-66.592 58.016-85.408 107.616 8.992 36.992 23.2 93.184 12.384 128.384-9.408 58.784-84.8 52.992-95.616 13.6-10.016-36.608-0.8-88.192 16.192-154.016-23.2-55.2-57.408-129.184-81.6-171.616-0.192 0-0.192-0.192-0.416-0.192-54.208-27.808-147.2-88.992-108.992-136 11.2-13.792 32-20 43.008-20 35.808 0 71.392 36 122.208 123.616 51.616 16.992 108.192 38.208 158.016 46.4 43.392-23.616 94.208-39.008 128-39.008 58.4 0 62.4 64 39.392 86.816-27.808 27.2-108.608 19.392-147.2 14.4zM754.016 749.984c8.992-8.992 14.016-21.184 14.016-33.792v-12.192h-256v256h12c12.8 0 24.992-4.992 34.016-14.016zM605.792 239.392c0 0-11.392-13.6-85.6 18.016 80.608 5.792 93.792-12.608 85.6-18.016z" />
<glyph unicode="&#xe92d;" glyph-name="times111111" horiz-adv-x="640" d="M415.2 448l215.456-215.424c12.448-12.48 12.448-32.704 0-45.152l-50.048-50.048c-12.48-12.448-32.704-12.448-45.152 0l-215.424 215.456-215.424-215.456c-12.48-12.448-32.704-12.448-45.152 0l-50.048 50.048c-12.448 12.48-12.448 32.704 0 45.152l215.456 215.424-215.456 215.424c-12.448 12.48-12.448 32.704 0 45.152l50.048 50.048c12.48 12.448 32.704 12.448 45.152 0l215.424-215.456 215.424 215.456c12.48 12.448 32.704 12.448 45.152 0l50.048-50.048c12.448-12.48 12.448-32.704 0-45.152z" />
<glyph unicode="&#xe92e;" glyph-name="circle111111" d="M512 944c274.016 0 496-222.016 496-496s-222.016-496-496-496-496 222.016-496 496 222.016 496 496 496zM512 48c220.992 0 400 179.008 400 400s-179.008 400-400 400-400-179.008-400-400 179.008-400 400-400z" />
<glyph unicode="&#xe92f;" glyph-name="pen111111" d="M581.472 773.536l256.032-256.032-555.968-555.968-228.288-25.184c-30.56-3.392-56.384 22.464-52.992 53.024l25.408 228.448zM995.872 811.648c37.504-37.504 37.504-98.304 0-135.808l-113.088-113.088-256.032 256.032 113.088 113.088c37.504 37.504 98.336 37.504 135.808 0z" />
<glyph unicode="&#xe930;" glyph-name="login1" d="M495.616 960v-1020.343l386.121 205.093v610.158zM637.55 354.597c0-15.674-12.706-28.379-28.379-28.379s-28.379 12.706-28.379 28.379v170.35c0 15.674 12.706 28.379 28.379 28.379s28.379-12.706 28.379-28.379v0zM563.419 10.862h-338.944v386.779h33.902v-352.768h271.141v813.458h-271.141v-352.549h-33.902v386.45h338.944v-881.371zM337.481 571.465l94.208-98.743c5.224-5.459 8.439-12.878 8.439-21.047s-3.216-15.588-8.45-21.058l0.011 0.011-94.208-98.999c-5.078-5.468-12.307-8.879-20.333-8.879-7.298 0-13.938 2.821-18.889 7.431l0.017-0.015-1.463 1.463c-5.183 5.544-8.365 13.015-8.365 21.23s3.182 15.685 8.381 21.247l-0.016-0.018 45.275 47.543h-203.739c-15.972 0.812-28.615 13.961-28.615 30.062s12.643 29.249 28.543 30.059l0.072 0.003h203.886l-45.275 47.543c-5.183 5.544-8.365 13.015-8.365 21.23s3.182 15.685 8.381 21.247l-0.016-0.018c5.094 5.308 12.247 8.606 20.17 8.606 7.486 0 14.285-2.944 19.301-7.738l-0.011 0.010z" />
<glyph unicode="&#xe931;" glyph-name="icon_faq_q1" d="M512 960c-282.77 0-512-229.23-512-512s229.23-512 512-512c282.77 0 512 229.23 512 512v0c-0.437 282.594-229.406 511.564-511.959 512h-0.041zM687.232 256.853c10.969-10.021 22.831-19.717 35.211-28.745l1.184-0.823-43.221-45.525c-16.933 19.547-34.029 37.359-51.983 54.269l-0.369 0.344c-26.897-15.813-59.247-25.153-93.778-25.153-2.237 0-4.464 0.039-6.682 0.117l0.321-0.009c-2.45-0.114-5.323-0.179-8.21-0.179-51.85 0-98.812 20.93-132.898 54.802l0.010-0.010c-38.284 41.569-61.756 97.295-61.756 158.502 0 4.279 0.115 8.531 0.341 12.754l-0.025-0.589c0 136.533 81.92 227.541 204.8 227.541s202.539-88.747 202.539-225.28c0.007-0.724 0.011-1.58 0.011-2.437 0-35.143-6.691-68.724-18.869-99.537l0.639 1.835c-9.106-24.998-23.089-46.299-40.923-63.666l-0.037-0.036zM525.653 598.187c-0.933 0.028-2.030 0.043-3.131 0.043-31.763 0-60.471-13.083-81.028-34.154l-0.022-0.023c-27.124-31.525-43.639-72.853-43.639-118.040 0-4.105 0.136-8.178 0.405-12.215l-0.029 0.548c0-97.835 50.048-163.84 129.707-163.84 1.383-0.072 3.002-0.112 4.63-0.112 16.643 0 32.291 4.262 45.912 11.753l-0.494-0.249c-13.12 13.98-27.245 26.672-42.383 38.093l-0.839 0.606 45.525 43.221c13.374-15.711 27.51-29.847 42.697-42.786l0.524-0.435c21.759 27.237 34.916 62.175 34.916 100.187 0 5.588-0.284 11.109-0.839 16.55l0.056-0.684c0.136 2.647 0.214 5.746 0.214 8.864 0 45.313-16.427 86.79-43.652 118.799l0.216-0.261c-22.708 21.159-53.272 34.147-86.871 34.147-0.66 0-1.318-0.005-1.975-0.015l0.099 0.001z" />
<glyph unicode="&#xe932;" glyph-name="icon_faq_a1" d="M511.957 627.797c-3.747-11.873-7.61-21.679-12.045-31.165l0.653 1.554-56.875-161.664h136.533l-59.179 159.36c-2.81 12.74-5.938 23.418-9.682 33.802l0.594-1.887zM512 960c-282.77 0-512-229.23-512-512s229.23-512 512-512c282.77 0 512 229.23 512 512v0c-0.437 282.594-229.406 511.564-511.959 512h-0.041zM637.141 254.592c-3.191 21.269-8.748 40.414-16.497 58.393l0.582-1.518-22.741 59.179h-175.232l-22.741-59.179c-6.827-25.045-9.088-34.133-13.653-56.875h-88.747c9.518 17.146 19.447 38.111 28.146 59.704l1.422 3.997 120.619 314.027c6.028 14.371 12.247 32.541 17.401 51.154l0.817 3.46h95.573c5.268-21.259 11.492-39.455 19.070-56.929l-0.894 2.315 120.619-314.027c13.653-34.133 20.48-50.048 27.307-63.701z" />
<glyph unicode="&#xe933;" glyph-name="arrow_to_up1" horiz-adv-x="896" d="M69.801 381l-44.4 44.4c-18.801 18.799-18.801 49.199 0 67.799l388.6 388.8c18.801 18.801 49.199 18.801 67.801 0l388.6-388.6c18.799-18.801 18.799-49.201 0-67.801l-44.4-44.4c-19-19-50-18.6-68.6 0.801l-229.4 240.8v-574.8c0-26.6-21.4-48-48-48h-64c-26.6 0-48 21.4-48 48v574.8l-229.6-241c-18.6-19.602-49.6-20-68.6-0.801z" />
<glyph unicode="&#xe934;" glyph-name="arrow_drop_right111111" d="M343.338 190.676v514.648c0 35.636 43.086 53.482 68.284 28.284l257.324-257.324c15.62-15.62 15.62-40.948 0-56.568l-257.324-257.324c-25.198-25.2-68.284-7.352-68.284 28.284z" />
<glyph unicode="&#xe935;" glyph-name="arrow_drop_up111111" d="M769.324 279.339h-514.648c-35.636 0-53.482 43.086-28.284 68.284l257.324 257.324c15.62 15.62 40.948 15.62 56.568 0l257.324-257.324c25.2-25.198 7.352-68.284-28.284-68.284z" />
<glyph unicode="&#xe936;" glyph-name="arrow_drop_left111111" d="M680.661 705.323v-514.648c0-35.636-43.086-53.482-68.284-28.284l-257.324 257.324c-15.62 15.62-15.62 40.948 0 56.568l257.324 257.324c25.198 25.2 68.284 7.352 68.284-28.284z" />
<glyph unicode="&#xe937;" glyph-name="arrow_to_right1" horiz-adv-x="896" d="M381 826.2l44.4 44.4c18.799 18.801 49.199 18.801 67.799 0l388.8-388.6c18.801-18.801 18.801-49.199 0-67.801l-388.8-388.798c-18.799-18.801-49.199-18.801-67.799 0l-44.4 44.4c-19 19-18.6 50 0.801 68.6l241 229.6h-574.8c-26.6 0-48 21.4-48 48v64c0 26.6 21.4 48 48 48h574.8l-241 229.6c-19.602 18.6-20 49.6-0.801 68.6z" />
<glyph unicode="&#xe938;" glyph-name="arrow_to_left1" horiz-adv-x="896" d="M515 69.801l-44.4-44.4c-18.799-18.801-49.199-18.801-67.799 0l-388.8 388.6c-18.801 18.801-18.801 49.199 0 67.801l388.8 388.798c18.799 18.801 49.199 18.801 67.799 0l44.4-44.4c19-19 18.6-50-0.801-68.6l-241-229.6h574.8c26.6 0 48-21.4 48-48v-64c0-26.6-21.4-48-48-48h-574.8l241-229.6c19.602-18.6 20-49.6 0.801-68.6z" />
<glyph unicode="&#xe939;" glyph-name="pSIM111111" horiz-adv-x="1479" d="M1346.967 960h-1033.473c-36.567-0.026-69.635-14.985-93.44-39.108l-0.014-0.014-181.326-183.477c-23.963-24.271-38.764-57.637-38.764-94.46 0-0.024 0-0.049 0-0.073v0.004-573.116c-0.001-0.183-0.001-0.401-0.001-0.618 0-73.208 59.085-132.615 132.17-133.137h1214.798c73.112 0.551 132.168 59.947 132.168 133.136 0 0.217-0.001 0.435-0.002 0.652v-0.034 756.491c0.001 0.184 0.001 0.401 0.001 0.618 0 73.172-59.027 132.557-132.062 133.136h-0.055zM1309.227 733.918v-59.503h-180.097v116.293h123.206c31.373-0.029 56.804-25.425 56.892-56.781v-0.008zM812.256 398.559v-118.239h-181.326v118.239zM630.93 465.59v118.29h181.326v-118.29zM1129.129 422.115h180.097v-118.29h-180.097zM1129.129 489.145v118.29h180.097v-118.29zM1062.252 790.707v-678.297h-183.067v678.297zM687.924 790.707h124.383v-140.002h-181.326v83.059c0 31.449 25.494 56.943 56.943 56.943v0zM630.981 169.302v43.834h181.326v-100.777h-124.383c-0.015 0-0.033 0-0.051 0-31.449 0-56.943 25.494-56.943 56.943 0 0.054 0 0.108 0 0.162v-0.008zM1252.335 112.41h-123.206v124.23h180.097v-67.338c-0.116-31.361-25.566-56.738-56.943-56.738 0 0 0 0 0 0v0z" />
<glyph unicode="&#xe93a;" glyph-name="check111111" d="M398.243 163.281l-284.486 284.439 80.198 80.198 204.241-203.683 431.802 431.802 80.198-80.803z" />
<glyph unicode="&#xe93b;" glyph-name="back" d="M819.2-12.8v-51.2h-614.4v51.2h614.4zM972.8 140.8v614.4c0 84.831-68.767 153.6-153.6 153.6h-614.4c-84.831 0-153.6-68.769-153.6-153.6v-614.4c0-84.833 68.769-153.6 153.6-153.6v-51.2l-10.55 0.251c-108.206 5.489-194.25 94.981-194.25 204.549v614.4c0 113.108 91.692 204.8 204.8 204.8h614.4c113.106 0 204.8-91.692 204.8-204.8v-614.4c0-113.106-91.694-204.8-204.8-204.8v51.2c84.833 0 153.6 68.767 153.6 153.6zM251.986 505.318l-23.593-24.616-23.593 24.616 23.593 24.616 23.593-24.616zM819.2 226.811c0-19.226-14.94-34.811-33.367-34.811s-33.362 15.585-33.362 34.811h66.729zM395.22 306.637l-166.828 174.065 47.186 49.233 166.828-174.064-47.186-49.234zM228.393 529.934l166.828 174.066 47.186-49.233-166.828-174.065-47.186 49.233zM251.986 540.131h333.655v-69.626h-333.655v69.626zM819.2 296.438v-69.627h-66.729v69.627h66.729zM585.641 540.131c128.993 0 233.559-109.104 233.559-243.693h-66.729c0 96.133-74.696 174.067-166.83 174.067v69.626z" />
<glyph unicode="&#xe93e;" glyph-name="back2" d="M256 928h512c123.712 0 224-100.288 224-224v-512c0-123.712-100.288-224-224-224h-512c-123.712 0-224 100.288-224 224v512c0 123.712 100.288 224 224 224zM182.067 480.483l-27.034-27.693-27.034 27.693 27.034 27.694 27.034-27.694zM832 167.162c0-21.626-17.114-39.162-38.234-39.162-21.114 0-38.227 17.536-38.227 39.162h76.461zM346.19 256.966l-191.156 195.823 54.067 55.388 191.157-195.825-54.068-55.386zM155.034 508.177l191.156 195.823 54.068-55.388-191.157-195.823-54.067 55.388zM182.067 519.647h382.314v-78.33h-382.314v78.33zM832 245.491v-78.33h-76.461v78.33h76.461zM564.381 519.647c147.805 0 267.619-122.742 267.619-274.156h-76.461c0 108.152-85.587 195.827-191.158 195.827v78.33z" />
<glyph unicode="&#xe93f;" glyph-name="important21111" horiz-adv-x="970" d="M954.95 407.579c0 257.684-212.216 469.895-469.897 469.895-259.579 0-469.895-212.211-469.895-469.895 0-259.579 210.316-469.897 469.895-469.897 257.682 0 469.897 210.319 469.897 469.897zM485.053 312.843c47.369 0 87.159-39.79 87.159-87.159 0-49.265-39.79-87.159-87.159-87.159-49.263 0-87.158 37.893-87.158 87.159 0 47.368 37.895 87.159 87.158 87.159zM401.684 625.474c-1.894 13.263 9.474 24.632 22.737 24.632h119.366c13.263 0 24.635-11.369 22.738-24.632l-13.263-257.685c-1.892-13.263-11.366-20.841-22.735-20.841h-92.842c-11.368 0-20.842 7.578-22.737 20.841l-13.263 257.685z" />
<glyph unicode="&#xe940;" glyph-name="arrow_to_bottom21111" horiz-adv-x="887" d="M802.133-26.665h-716.8c-29.867 0-51.2 21.333-51.2 51.2v51.2c0 27.73 21.333 51.2 51.2 51.2h716.8c27.73 0 51.2-23.47 51.2-51.2v-51.2c0-29.867-23.47-51.2-51.2-51.2zM659.2 570.667c19.2 19.199 53.333 19.199 72.537 0l36.263-36.267c19.197-19.199 19.197-51.2 0-72.533l-290.133-287.998c-19.2-21.333-51.2-21.333-70.4 0l-290.133 287.998c-19.2 19.201-19.2 53.334 0 72.533l36.267 36.267c19.2 19.199 53.333 19.199 72.533 0l140.8-140.8v448c0 27.733 21.333 51.2 51.2 51.2h51.2c27.733 0 51.2-23.467 51.2-51.2v-448l138.667 140.8z" />
<glyph unicode="&#xe941;" glyph-name="arrow_to_down21111" horiz-adv-x="896" d="M826.2 515l44.4-44.4c18.801-18.799 18.801-49.199 0-67.799l-388.6-388.8c-18.801-18.801-49.199-18.801-67.801 0l-388.798 388.8c-18.801 18.799-18.801 49.199 0 67.799l44.4 44.4c19 19 50 18.6 68.6-0.801l229.6-241v574.8c0 26.6 21.4 48 48 48h64c26.6 0 48-21.4 48-48v-574.8l229.6 241c18.6 19.602 49.6 20 68.6 0.801z" />
<glyph unicode="&#xe942;" glyph-name="arrow_to_up21111" horiz-adv-x="896" d="M69.801 381l-44.4 44.4c-18.801 18.799-18.801 49.199 0 67.799l388.6 388.8c18.801 18.801 49.199 18.801 67.801 0l388.6-388.6c18.799-18.801 18.799-49.201 0-67.801l-44.4-44.4c-19-19-50-18.6-68.6 0.801l-229.4 240.8v-574.8c0-26.6-21.4-48-48-48h-64c-26.6 0-48 21.4-48 48v574.8l-229.6-241c-18.6-19.602-49.6-20-68.6-0.801z" />
<glyph unicode="&#xe943;" glyph-name="arrow_to_right21111" horiz-adv-x="896" d="M381 826.2l44.4 44.4c18.799 18.801 49.199 18.801 67.799 0l388.8-388.6c18.801-18.801 18.801-49.199 0-67.801l-388.8-388.798c-18.799-18.801-49.199-18.801-67.799 0l-44.4 44.4c-19 19-18.6 50 0.801 68.6l241 229.6h-574.8c-26.6 0-48 21.4-48 48v64c0 26.6 21.4 48 48 48h574.8l-241 229.6c-19.602 18.6-20 49.6-0.801 68.6z" />
<glyph unicode="&#xe944;" glyph-name="arrow_to_left21111" horiz-adv-x="896" d="M515 69.801l-44.4-44.4c-18.799-18.801-49.199-18.801-67.799 0l-388.8 388.6c-18.801 18.801-18.801 49.199 0 67.801l388.8 388.798c18.799 18.801 49.199 18.801 67.799 0l44.4-44.4c19-19 18.6-50-0.801-68.6l-241-229.6h574.8c26.6 0 48-21.4 48-48v-64c0-26.6-21.4-48-48-48h-574.8l241-229.6c19.602-18.6 20-49.6 0.801-68.6z" />
<glyph unicode="&#xe945;" glyph-name="calendar21111" horiz-adv-x="896" d="M0 32v544h896v-544c0-53-43-96-96-96h-704c-53 0-96 43-96 96zM640 424v-80c0-13.199 10.801-24 24-24h80c13.199 0 24 10.801 24 24v80c0 13.199-10.801 24-24 24h-80c-13.199 0-24-10.801-24-24zM640 168v-80c0-13.199 10.801-24 24-24h80c13.199 0 24 10.801 24 24v80c0 13.199-10.801 24-24 24h-80c-13.199 0-24-10.801-24-24zM384 424v-80c0-13.199 10.801-24 24-24h80c13.199 0 24 10.801 24 24v80c0 13.199-10.801 24-24 24h-80c-13.199 0-24-10.801-24-24zM384 168v-80c0-13.199 10.801-24 24-24h80c13.199 0 24 10.801 24 24v80c0 13.199-10.801 24-24 24h-80c-13.199 0-24-10.801-24-24zM128 424v-80c0-13.199 10.801-24 24-24h80c13.199 0 24 10.801 24 24v80c0 13.199-10.801 24-24 24h-80c-13.199 0-24-10.801-24-24zM128 168v-80c0-13.199 10.801-24 24-24h80c13.199 0 24 10.801 24 24v80c0 13.199-10.801 24-24 24h-80c-13.199 0-24-10.801-24-24zM800 832c53 0 96-43 96-96v-96h-896v96c0 53 43 96 96 96h96v96c0 17.6 14.4 32 32 32h64c17.6 0 32-14.4 32-32v-96h256v96c0 17.6 14.4 32 32 32h64c17.6 0 32-14.4 32-32v-96h96z" />
<glyph unicode="&#xe946;" glyph-name="file_upload21111" d="M592 192h-160c-26.6 0-48 21.4-48 48v336h-175.4c-35.6 0-53.4 43-28.199 68.199l304.2 304.4c15 15 39.6 15 54.6 0l304.4-304.4c25.201-25.199 7.4-68.199-28.199-68.199h-175.4v-336c0-26.6-21.4-48-48-48zM1024 208v-224c0-26.6-21.4-48-48-48h-928c-26.6 0-48 21.4-48 48v224c0 26.6 21.4 48 48 48h272v-16c0-61.801 50.199-112 112-112h160c61.801 0 112 50.199 112 112v16h272c26.6 0 48-21.4 48-48zM776 32c0 22-18 40-40 40s-40-18-40-40 18-40 40-40 40 18 40 40zM904 32c0 22-18 40-40 40s-40-18-40-40 18-40 40-40 40 18 40 40z" />
<glyph unicode="&#xe947;" glyph-name="next_tryangle21111" horiz-adv-x="1250" d="M624.814 283.119l-624.814 329.763h1249.627z" />
<glyph unicode="&#xe948;" glyph-name="login21111" d="M495.616 960v-1020.343l386.121 205.093v610.158zM637.55 354.597c0-15.674-12.706-28.379-28.379-28.379s-28.379 12.706-28.379 28.379v170.35c0 15.674 12.706 28.379 28.379 28.379s28.379-12.706 28.379-28.379v0zM563.419 10.862h-338.944v386.779h33.902v-352.768h271.141v813.458h-271.141v-352.549h-33.902v386.45h338.944v-881.371zM337.481 571.465l94.208-98.743c5.224-5.459 8.439-12.878 8.439-21.047s-3.216-15.588-8.45-21.058l0.011 0.011-94.208-98.999c-5.078-5.468-12.307-8.879-20.333-8.879-7.298 0-13.938 2.821-18.889 7.431l0.017-0.015-1.463 1.463c-5.183 5.544-8.365 13.015-8.365 21.23s3.182 15.685 8.381 21.247l-0.016-0.018 45.275 47.543h-203.739c-15.972 0.812-28.615 13.961-28.615 30.062s12.643 29.249 28.543 30.059l0.072 0.003h203.886l-45.275 47.543c-5.183 5.544-8.365 13.015-8.365 21.23s3.182 15.685 8.381 21.247l-0.016-0.018c5.094 5.308 12.247 8.606 20.17 8.606 7.486 0 14.285-2.944 19.301-7.738l-0.011 0.010z" />
<glyph unicode="&#xe949;" glyph-name="icon_faq_q21111" d="M512 960c-282.77 0-512-229.23-512-512s229.23-512 512-512c282.77 0 512 229.23 512 512v0c-0.437 282.594-229.406 511.564-511.959 512h-0.041zM687.232 256.853c10.969-10.021 22.831-19.717 35.211-28.745l1.184-0.823-43.221-45.525c-16.933 19.547-34.029 37.359-51.983 54.269l-0.369 0.344c-26.897-15.813-59.247-25.153-93.778-25.153-2.237 0-4.464 0.039-6.682 0.117l0.321-0.009c-2.45-0.114-5.323-0.179-8.21-0.179-51.85 0-98.812 20.93-132.898 54.802l0.010-0.010c-38.284 41.569-61.756 97.295-61.756 158.502 0 4.279 0.115 8.531 0.341 12.754l-0.025-0.589c0 136.533 81.92 227.541 204.8 227.541s202.539-88.747 202.539-225.28c0.007-0.724 0.011-1.58 0.011-2.437 0-35.143-6.691-68.724-18.869-99.537l0.639 1.835c-9.106-24.998-23.089-46.299-40.923-63.666l-0.037-0.036zM525.653 598.187c-0.933 0.028-2.030 0.043-3.131 0.043-31.763 0-60.471-13.083-81.028-34.154l-0.022-0.023c-27.124-31.525-43.639-72.853-43.639-118.040 0-4.105 0.136-8.178 0.405-12.215l-0.029 0.548c0-97.835 50.048-163.84 129.707-163.84 1.383-0.072 3.002-0.112 4.63-0.112 16.643 0 32.291 4.262 45.912 11.753l-0.494-0.249c-13.12 13.98-27.245 26.672-42.383 38.093l-0.839 0.606 45.525 43.221c13.374-15.711 27.51-29.847 42.697-42.786l0.524-0.435c21.759 27.237 34.916 62.175 34.916 100.187 0 5.588-0.284 11.109-0.839 16.55l0.056-0.684c0.136 2.647 0.214 5.746 0.214 8.864 0 45.313-16.427 86.79-43.652 118.799l0.216-0.261c-22.708 21.159-53.272 34.147-86.871 34.147-0.66 0-1.318-0.005-1.975-0.015l0.099 0.001z" />
<glyph unicode="&#xe94a;" glyph-name="icon_faq_a21111" d="M511.957 627.797c-3.747-11.873-7.61-21.679-12.045-31.165l0.653 1.554-56.875-161.664h136.533l-59.179 159.36c-2.81 12.74-5.938 23.418-9.682 33.802l0.594-1.887zM512 960c-282.77 0-512-229.23-512-512s229.23-512 512-512c282.77 0 512 229.23 512 512v0c-0.437 282.594-229.406 511.564-511.959 512h-0.041zM637.141 254.592c-3.191 21.269-8.748 40.414-16.497 58.393l0.582-1.518-22.741 59.179h-175.232l-22.741-59.179c-6.827-25.045-9.088-34.133-13.653-56.875h-88.747c9.518 17.146 19.447 38.111 28.146 59.704l1.422 3.997 120.619 314.027c6.028 14.371 12.247 32.541 17.401 51.154l0.817 3.46h95.573c5.268-21.259 11.492-39.455 19.070-56.929l-0.894 2.315 120.619-314.027c13.653-34.133 20.48-50.048 27.307-63.701z" />
<glyph unicode="&#xe94b;" glyph-name="error21111" d="M1008 448c0-273.984-222.080-496-496-496s-496 222.016-496 496c0 273.824 222.080 496 496 496s496-222.176 496-496zM512 348c-50.816 0-92-41.184-92-92s41.184-92 92-92 92 41.184 92 92-41.184 92-92 92zM424.64 678.688l14.848-272c0.704-12.736 11.232-22.688 23.968-22.688h97.088c12.736 0 23.264 9.952 23.968 22.688l14.848 272c0.736 13.76-10.208 25.312-23.968 25.312h-126.784c-13.76 0-24.704-11.552-23.968-25.312z" />
<glyph unicode="&#xe94c;" glyph-name="search21111" d="M1016.992 22.208c9.408-9.408 9.408-24.608 0-34.016l-45.184-45.184c-9.408-9.408-24.608-9.408-34.016 0l-242.816 242.784c-4.384 4.608-7.008 10.592-7.008 16.992v26.4c-72.992-63.008-168-101.184-272-101.184-229.792 0-416 186.208-416 416s186.208 416 416 416 416-186.208 416-416c0-104-38.208-199.008-101.184-272h26.4c6.4 0 12.384-2.4 16.992-7.008zM416 224c176.8 0 320 143.2 320 320s-143.2 320-320 320-320-143.2-320-320 143.2-320 320-320z" />
<glyph unicode="&#xe94d;" glyph-name="launch_link11111" d="M995.2 960c15.904 0 28.8-12.896 28.8-28.8l-0.352-326.4c0-15.904-12.896-28.8-28.8-28.8h-66.624c-15.904 0-28.8 12.896-28.8 28.8 0 0.192 0 0.384 0 0.576l5.44 147.264-4.128 4.128-557.728-557.728c-4.352-4.352-10.368-7.072-16.992-7.072s-12.64 2.688-16.992 7.072l-46.016 46.016c-4.352 4.352-7.072 10.368-7.072 16.992s2.688 12.64 7.072 16.992l557.728 557.728-4.128 4.128-147.264-5.44c-0.192 0-0.384 0-0.576 0-15.904 0-28.8 12.896-28.8 28.8v66.624c0 15.904 12.896 28.8 28.8 28.8zM864 384c17.664 0 32-14.336 32-32v-320c0-52.992-43.008-96-96-96h-704c-52.992 0-96 43.008-96 96v704c0 52.992 43.008 96 96 96h320c17.664 0 32-14.336 32-32v-32c0-17.664-14.336-32-32-32h-308c-6.624 0-12-5.376-12-12v-680c0-6.624 5.376-12 12-12h680c6.624 0 12 5.376 12 12v308c0 17.664 14.336 32 32 32h32z" />
<glyph unicode="&#xe94e;" glyph-name="minus11111" horiz-adv-x="768" d="M736 512c17.664 0 32-14.304 32-32v-64c0-17.664-14.336-32-32-32h-704c-17.664 0-32 14.336-32 32v64c0 17.696 14.336 32 32 32h704z" />
<glyph unicode="&#xe94f;" glyph-name="plus11111" horiz-adv-x="768" d="M736 512c17.664 0 32-14.304 32-32v-64c0-17.664-14.336-32-32-32h-288v-288c0-17.664-14.304-32-32-32h-64c-17.696 0-32 14.336-32 32v288h-288c-17.664 0-32 14.336-32 32v64c0 17.696 14.336 32 32 32h288v288c0 17.696 14.304 32 32 32h64c17.696 0 32-14.304 32-32v-288h288z" />
<glyph unicode="&#xe950;" glyph-name="phone_square_alt_secondary21111" horiz-adv-x="896" d="M800 896c52.992 0 96-43.008 96-96v-704c0-52.992-43.008-96-96-96h-704c-52.992 0-96 43.008-96 96v704c0 52.992 43.008 96 96 96h704zM767.232 281.248c0.512 2.176 0.8 4.416 0.8 6.752 0 12.352-7.488 22.976-18.176 27.584l-140 60c-3.616 1.568-7.616 2.432-11.808 2.432-9.376 0-17.728-4.288-23.232-11.040l-62.016-75.776c-97.408 45.952-175.616 124.16-221.568 221.568l75.776 62.016c6.72 5.504 11.008 13.888 11.008 23.232 0 4.192-0.864 8.16-2.4 11.808l-60 140c-4.576 10.688-15.2 18.176-27.552 18.176-2.336 0-4.608-0.256-6.784-0.768l-130.016-30.016c-13.312-3.072-23.264-14.976-23.264-29.216 0-320.576 260-580 580-580v0.032c14.24 0 26.176 9.92 29.248 23.232z" />
<glyph unicode="&#xe951;" glyph-name="file_pdf21111" horiz-adv-x="768" d="M363.808 447.808c-10.016 32-9.792 93.792-4 93.792 16.8 0 15.2-73.792 4-93.792zM360.384 353.408c19.2-34.816 43.616-62.4 68.992-81.6-47.808-9.408-89.216-29.792-125.792-43.808 22.208 38.816 41.408 84.992 56.8 125.408zM172.192 103.808c11.616 31.392 56.416 67.808 69.792 80.384-43.392-69.6-69.792-82.016-69.792-80.384zM496 640h272v-656c0-26.592-21.408-48-48-48h-672c-26.592 0-48 21.408-48 48v928c0 26.592 21.408 48 48 48h400v-272c0-26.4 21.6-48 48-48zM480 296.384c-40 24.384-66.592 58.016-85.408 107.616 8.992 36.992 23.2 93.184 12.384 128.384-9.408 58.784-84.8 52.992-95.616 13.6-10.016-36.608-0.8-88.192 16.192-154.016-23.2-55.2-57.408-129.184-81.6-171.616-0.192 0-0.192-0.192-0.416-0.192-54.208-27.808-147.2-88.992-108.992-136 11.2-13.792 32-20 43.008-20 35.808 0 71.392 36 122.208 123.616 51.616 16.992 108.192 38.208 158.016 46.4 43.392-23.616 94.208-39.008 128-39.008 58.4 0 62.4 64 39.392 86.816-27.808 27.2-108.608 19.392-147.2 14.4zM754.016 749.984c8.992-8.992 14.016-21.184 14.016-33.792v-12.192h-256v256h12c12.8 0 24.992-4.992 34.016-14.016zM605.792 239.392c0 0-11.392-13.6-85.6 18.016 80.608 5.792 93.792-12.608 85.6-18.016z" />
<glyph unicode="&#xe952;" glyph-name="times11111" horiz-adv-x="640" d="M415.2 448l215.456-215.424c12.448-12.48 12.448-32.704 0-45.152l-50.048-50.048c-12.48-12.448-32.704-12.448-45.152 0l-215.424 215.456-215.424-215.456c-12.48-12.448-32.704-12.448-45.152 0l-50.048 50.048c-12.448 12.48-12.448 32.704 0 45.152l215.456 215.424-215.456 215.424c-12.448 12.48-12.448 32.704 0 45.152l50.048 50.048c12.48 12.448 32.704 12.448 45.152 0l215.424-215.456 215.424 215.456c12.48 12.448 32.704 12.448 45.152 0l50.048-50.048c12.448-12.48 12.448-32.704 0-45.152z" />
<glyph unicode="&#xe953;" glyph-name="circle11111" d="M512 944c274.016 0 496-222.016 496-496s-222.016-496-496-496-496 222.016-496 496 222.016 496 496 496zM512 48c220.992 0 400 179.008 400 400s-179.008 400-400 400-400-179.008-400-400 179.008-400 400-400z" />
<glyph unicode="&#xe954;" glyph-name="pen11111" d="M581.472 773.536l256.032-256.032-555.968-555.968-228.288-25.184c-30.56-3.392-56.384 22.464-52.992 53.024l25.408 228.448zM995.872 811.648c37.504-37.504 37.504-98.304 0-135.808l-113.088-113.088-256.032 256.032 113.088 113.088c37.504 37.504 98.336 37.504 135.808 0z" />
<glyph unicode="&#xe955;" glyph-name="arrow_down11111" d="M478.2 255.5l-272 272c-18.8 18.8-18.8 49.2 0 67.8l45.2 45.2c18.8 18.8 49.2 18.8 67.8 0l192.8-192.8 192.8 192.8c18.8 18.8 49.2 18.8 67.8 0l45.2-45.2c18.8-18.8 18.8-49.2 0-67.8l-272-272c-18.4-18.8-48.8-18.8-67.6 0z" />
<glyph unicode="&#xe956;" glyph-name="arrow_left11111" d="M319.388 482l272 272c18.8 18.8 49.2 18.8 67.8 0l45.2-45.2c18.8-18.8 18.8-49.2 0-67.8l-192.6-193 192.8-192.8c18.8-18.8 18.8-49.2 0-67.8l-45.2-45.4c-18.8-18.8-49.2-18.8-67.8 0l-272 272c-19 18.8-19 49.2-0.2 68z" />
<glyph unicode="&#xe957;" glyph-name="arrow_right11111" d="M704.512 414l-272-272c-18.8-18.8-49.2-18.8-67.8 0l-45.2 45.2c-18.8 18.8-18.8 49.2 0 67.8l192.8 192.8-192.8 192.8c-18.8 18.8-18.8 49.2 0 67.8l45 45.6c18.8 18.8 49.2 18.8 67.8 0l272-272c19-18.8 19-49.2 0.2-68z" />
<glyph unicode="&#xe958;" glyph-name="arrow_up11111" d="M546 640.612l272-272c18.8-18.8 18.8-49.2 0-67.8l-45.2-45.2c-18.8-18.8-49.2-18.8-67.8 0l-193 192.6-192.8-192.8c-18.8-18.8-49.2-18.8-67.8 0l-45.4 45.2c-18.8 18.8-18.8 49.2 0 67.8l272 272c18.8 19 49.2 19 68 0.2z" />
<glyph unicode="&#xe959;" glyph-name="copy11111" d="M673.664 832h-431.147c-39.633-0.121-71.73-32.217-71.851-71.839v-503.052h71.851v503.040h431.147zM781.44 688.299h-395.179c-39.667-0.097-71.796-32.227-71.893-71.884v-503.006c0.121-39.633 32.217-71.73 71.839-71.851h395.233c39.652 0.097 71.772 32.202 71.893 71.839v503.009c-0.097 39.652-32.202 71.772-71.839 71.893h-0.012zM781.44 113.408h-395.179v502.997h395.221z" />
<glyph unicode="&#xe95a;" glyph-name="call11111" d="M979.437 167.23c-50.584 44.185-107.748 82.963-169.33 114.31l-4.732 2.186c-52.187 25.035-71.272 24.551-108.21-2.072-30.853-22.039-50.601-42.887-85.995-35.261s-105.123 60.429-172.782 127.823-120.33 137.388-127.823 172.782 13.224 55.272 35.261 85.995c26.445 36.936 27.372 56.021 2.072 108.21-33.384 66.414-72.236 123.654-117.464 175.158l0.793-0.921c-37.951 37.951-46.501 29.665-67.218 22.039-23.77-10.062-44.049-21.041-63.132-33.68l1.424 0.887c-31.985-18.398-57.407-45.039-73.825-77.056l-0.488-1.048c-14.723-31.779-31.779-90.93 55.009-245.333 67.321-122.944 147.356-228.578 240.594-320.904l0.11-0.109 0.528-0.528c92.471-93.281 198.097-173.309 313.913-237.118l7.1-3.586c154.27-86.787 213.598-69.729 245.333-55.009 33.229 16.725 59.959 42.194 77.765 73.414l0.472 0.899c11.752 17.659 22.731 37.939 31.841 59.209l0.952 2.5c7.493 20.717 16.044 29.267-22.17 67.218z" />
<glyph unicode="&#xe95b;" glyph-name="help11111" d="M515.488 928.013c187.521 0 316.513-104.001 316.513-253.504 0-99.009-48-167.49-140.511-222.017-87.009-50.494-116.511-87.489-116.511-151.487v-39.489h-173.473l-1.504 43.007c-8.511 103.007 27.489 167.010 118.016 219.999 84.512 50.494 120 82.496 120 144.514s-60 107.49-134.4 107.49c-2.25 0.144-4.882 0.223-7.53 0.223-68.715 0-124.633-54.789-126.452-123.064l-0.004-0.167h-177.634c3.489 160.993 122.494 274.496 323.49 274.496zM383.998 71.020c-0.055 1.29-0.089 2.799-0.089 4.32 0 59.275 48.052 107.327 107.327 107.327s107.327-48.052 107.327-107.327c0-59.275-48.052-107.327-107.327-107.327-0.083 0-0.163 0-0.246 0h0.014c-0.682-0.017-1.481-0.027-2.286-0.027-57.246 0-103.766 45.928-104.722 102.942l-0.001 0.090z" />
<glyph unicode="&#xe95c;" glyph-name="check_circle11111" d="M426 234l384 384-60 62-324-324-152 152-60-60zM512 874q176 0 301-125t125-301-125-301-301-125-301 125-125 301 125 301 301 125z" />
<glyph unicode="&#xe95d;" glyph-name="eSIM21111" d="M0 504.875h455.125v455.125h-455.125zM113.792 846.208h227.541v-227.541h-227.541zM0-64h455.125v455.125h-455.125zM113.792 277.333h227.541v-227.541h-227.541zM568.875 960v-455.125h455.125v455.125zM910.208 618.667h-227.541v227.541h227.541zM910.251 49.749h113.792v-113.792h-113.792v113.792zM568.918 391.082h113.792v-113.792h-113.792v113.792zM682.667 277.333h113.792v-113.792h-113.792v113.792zM568.918 163.541h113.792v-113.792h-113.792v113.792zM682.667 49.749h113.792v-113.792h-113.792v113.792zM796.459 163.541h113.792v-113.792h-113.792v113.792zM796.459 391.082h113.792v-113.792h-113.792v113.792zM910.251 277.333h113.792v-113.792h-113.792v113.792z" />
<glyph unicode="&#xe95e;" glyph-name="close21111" d="M50.196 120.34c-17.678-16.581-28.691-40.087-28.691-66.168s11.013-49.584 28.642-66.12l0.048-0.045c17.192-16.354 40.506-26.416 66.168-26.416s48.973 10.062 66.207 26.453l-0.039-0.037 329.926 326.3 327.206-327.206c17.129-17.242 40.855-27.915 67.073-27.915 52.209 0 94.534 42.325 94.534 94.534 0 25.994-10.491 49.535-27.466 66.624l0.005-0.005-329.017 327.206 329.017 329.017c17.678 16.581 28.691 40.087 28.691 66.168s-11.013 49.584-28.642 66.12l-0.048 0.045c-16.665 18.529-40.72 30.131-67.484 30.131-26.334 0-50.045-11.231-66.604-29.164l-0.056-0.061-327.206-328.112-329.017 328.112c-17.134 16.083-40.259 25.965-65.688 25.965-25.893 0-49.394-10.244-66.672-26.9l0.031 0.030c-17.678-16.581-28.691-40.087-28.691-66.168s11.013-49.584 28.642-66.12l0.048-0.045 328.112-329.017z" />
<glyph unicode="&#xe95f;" glyph-name="arrow_up_circle11111" d="M512.399-64c-0.237 0-0.517-0.001-0.798-0.001-282.99 0-512.399 229.409-512.399 512.399s229.409 512.399 512.399 512.399c282.99 0 512.399-229.409 512.399-512.399 0-0.28 0-0.561-0.001-0.841v0.044c-0.904-282.185-229.416-510.696-511.514-511.601h-0.087zM512.399 866.619c-231.417 0-419.018-187.601-419.018-419.018s187.601-419.018 419.018-419.018c231.417 0 419.018 187.601 419.018 419.018v0c0 231.417-187.601 419.018-419.018 419.018v0zM698.363 401.309c-12.781 0.006-24.35 5.19-32.723 13.568l-153.241 153.241-153.241-153.241c-8.033-6.574-18.408-10.558-29.713-10.558-26.007 0-47.090 21.083-47.090 47.090 0 11.305 3.984 21.68 10.624 29.797l-0.067-0.084 185.964 185.964c8.504 8.418 20.206 13.618 33.122 13.618s24.619-5.201 33.126-13.622l185.96-185.96c8.192-8.462 13.241-20.010 13.241-32.737 0-25.611-20.446-46.447-45.906-47.075l-0.058-0.001zM512.399 215.345c-0.237-0.004-0.517-0.007-0.798-0.007-25.566 0-46.292 20.725-46.292 46.292 0 0.002 0 0.005 0 0.007v0 372.726c3.132 23.242 22.841 40.972 46.691 40.972s43.559-17.731 46.664-40.73l0.027-0.243v-372.726c0-25.566-20.725-46.292-46.292-46.292v0z" />
<glyph unicode="&#xe960;" glyph-name="ok11111" d="M512-64c-282.77 0-512 229.23-512 512s229.23 512 512 512c282.77 0 512-229.23 512-512v0c0-282.77-229.23-512-512-512v0zM512 832c-212.077 0-384-171.923-384-384s171.923-384 384-384c212.077 0 384 171.923 384 384v0c0 212.077-171.923 384-384 384v0z" />
<glyph unicode="&#xe961;" glyph-name="launch11111" d="M864 320h-64c-17.673 0-32-14.327-32-32v0-224h-640v640h288c17.673 0 32 14.327 32 32v0 64c0 17.673-14.327 32-32 32v0h-320c-53.019 0-96-42.981-96-96v0-704c0-53.019 42.981-96 96-96v0h704c53.019 0 96 42.981 96 96v0 256c0 17.673-14.327 32-32 32v0zM976 960h-256c-42.74 0-64.1-51.82-34-82l71.46-71.46-487.46-487.28c-8.721-8.692-14.118-20.716-14.118-34s5.396-25.308 14.116-33.999l0.001-0.001 45.34-45.26c8.692-8.721 20.716-14.118 34-14.118s25.308 5.396 33.999 14.116l487.221 487.361 71.44-71.36c30-30 82-9 82 34v256c0 26.51-21.49 48-48 48v0z" />
<glyph unicode="&#xe962;" glyph-name="picture_as_pdf11111" d="M491.8 447.8c-10 32-9.8 93.8-4 93.8 16.8 0 15.2-73.8 4-93.8zM488.4 353.4c-15.4-40.4-34.6-86.6-56.8-125.4 36.6 14 78 34.4 125.8 43.8-25.4 19.2-49.8 46.8-69 81.6zM300.2 103.8c0-1.6 26.4 10.8 69.8 80.4-13.4-12.6-58.2-49-69.8-80.4zM624 640h272v-656c0-26.6-21.4-48-48-48h-672c-26.6 0-48 21.4-48 48v928c0 26.6 21.4 48 48 48h400v-272c0-26.4 21.6-48 48-48zM608 296.4c-40 24.4-66.6 58-85.4 107.6 9 37 23.2 93.2 12.4 128.4-9.4 58.8-84.8 53-95.6 13.6-10-36.6-0.8-88.2 16.2-154-23.2-55.2-57.4-129.2-81.6-171.6-0.2 0-0.2-0.2-0.4-0.2-54.2-27.8-147.2-89-109-136 11.2-13.8 32-20 43-20 35.8 0 71.4 36 122.2 123.6 51.6 17 108.2 38.2 158 46.4 43.4-23.6 94.2-39 128-39 58.4 0 62.4 64 39.4 86.8-27.8 27.2-108.6 19.4-147.2 14.4zM882 750l-196 196c-9 9-21.2 14-34 14h-12v-256h256v12.2c0 12.6-5 24.8-14 33.8zM733.8 239.4c8.2 5.4-5 23.8-85.6 18 74.2-31.6 85.6-18 85.6-18z" />
<glyph unicode="&#xe963;" glyph-name="ng11111" d="M614.22 448l307.827 307.827c13.592 13.132 22.023 31.526 22.023 51.886 0 39.835-32.294 72.121-72.121 72.121-20.36 0-38.755-8.432-51.861-22.005l-0.024-0.025-307.827-307.827-307.827 307.827c-13.132 13.592-31.526 22.023-51.886 22.023-39.835 0-72.121-32.294-72.121-72.121 0-20.36 8.432-38.755 22.005-51.861l0.025-0.024 307.827-307.827-307.827-307.827c-12.524-12.955-20.235-30.624-20.235-50.097 0-39.835 32.294-72.121 72.121-72.121 19.473 0 37.142 7.72 50.123 20.259l-0.025-0.024 307.827 307.827 307.827-307.827c12.955-12.524 30.624-20.235 50.097-20.235 39.835 0 72.121 32.294 72.121 72.121 0 19.473-7.72 37.142-20.259 50.123l0.024-0.025z" />
<glyph unicode="&#xe964;" glyph-name="trash11111" d="M185.125 795.429l60.709-747.52c0-0.022 0-0.047 0-0.073 0-41.567 33.697-75.264 75.264-75.264 0.026 0 0.051 0 0.077 0h362.858c0.022 0 0.047 0 0.073 0 41.567 0 75.264 33.697 75.264 75.264 0 0.026 0 0.051 0 0.077v-0.004l59.611 747.52zM343.552 114.030l-17.262 599.113h47.543l17.627-599.113zM524.288 114.030h-46.226v599.113h46.299zM658.798 114.030h-47.909l17.481 599.113h47.543zM779.118 888.027h-92.818l-67.657 59.173c-9.027 7.917-20.906 12.778-33.918 12.873h-166.639c-13.205-0.041-25.265-4.908-34.516-12.929l0.066 0.056-67.657-59.173h-92.745c-45.275 0-77.166-21.943-77.166-66.853h709.486c0.512 45.202-31.378 66.853-76.434 66.853z" />
<glyph unicode="&#xe965;" glyph-name="add_circle_inverse11111" d="M512 960c-282.77 0-512-229.23-512-512s229.23-512 512-512c282.77 0 512 229.23 512 512v0c0 282.77-229.23 512-512 512v0zM734.764 408.62h-183.384v-183.384c0-21.749-17.631-39.38-39.38-39.38s-39.38 17.631-39.38 39.38v0 183.384h-183.384c-21.749 0-39.38 17.631-39.38 39.38s17.631 39.38 39.38 39.38v0h183.384v183.384c0 21.749 17.631 39.38 39.38 39.38s39.38-17.631 39.38-39.38v0-183.384h183.384c21.749 0 39.38-17.631 39.38-39.38s-17.631-39.38-39.38-39.38v0z" />
<glyph unicode="&#xe966;" glyph-name="help_circle11111" d="M1008 448c0-273.994-222.086-496-496-496s-496 222.006-496 496c0 273.834 222.086 496 496 496s496-222.166 496-496zM525.31 780c-108.994 0-178.51-45.914-233.098-127.516-7.072-10.572-4.706-24.83 5.43-32.516l69.398-52.62c10.41-7.894 25.242-6.016 33.33 4.244 35.728 45.316 60.226 71.594 114.606 71.594 40.858 0 91.396-26.296 91.396-65.916 0-29.952-24.726-45.334-65.068-67.952-47.048-26.374-109.304-59.2-109.304-141.318v-8c0-13.254 10.746-24 24-24h112c13.254 0 24 10.746 24 24v2.666c0 56.924 166.372 59.294 166.372 213.334 0 116.004-120.33 204-233.062 204zM512 284c-50.73 0-92-41.27-92-92 0-50.728 41.27-92 92-92s92 41.272 92 92c0 50.73-41.27 92-92 92z" />
<glyph unicode="&#xe967;" glyph-name="phone_android11111" d="M736 192v598h-448v-598h448zM598 64v42h-172v-42h172zM682 918q52 0 90-38t38-90v-684q0-52-38-90t-90-38h-340q-52 0-90 38t-38 90v684q0 52 38 90t90 38h340z" />
<glyph unicode="&#xe968;" glyph-name="phone_iphone11111" d="M682 192v598h-384v-598h384zM490 22q26 0 45 19t19 45-19 45-45 19-45-19-19-45 19-45 45-19zM662 918q44 0 75-32t31-76v-724q0-44-31-76t-75-32h-342q-44 0-75 32t-31 76v724q0 44 31 76t75 32h342z" />
<glyph unicode="&#xe969;" glyph-name="image11111" d="M159.014 309.425h469.425c7.566 0 13.699 6.133 13.699 13.699 0 3.099-1.029 5.958-2.765 8.254l0.025-0.034-234.74 377.315c-2.483 3.584-6.573 5.901-11.205 5.901s-8.723-2.318-11.176-5.856l-0.029-0.045-234.521-377.589c-1.526-2.19-2.439-4.906-2.439-7.836 0-7.597 6.136-13.762 13.722-13.808h0.004zM636.822 452.164l86.137-136.986c2.402-3.559 6.405-5.878 10.953-5.918h130.965c7.566 0 13.699 6.133 13.699 13.699 0 3.099-1.029 5.958-2.765 8.254l0.025-0.034-151.397 215.452c-2.483 3.584-6.573 5.901-11.205 5.901s-8.723-2.318-11.176-5.856l-0.029-0.045-65.479-79.014c-1.351-2.133-2.153-4.73-2.153-7.515 0-2.961 0.907-5.711 2.459-7.986l-0.032 0.049zM746.082 664.877c34.945 3.664 61.947 32.967 61.947 68.577 0 38.070-30.862 68.932-68.932 68.932-35.61 0-64.913-27.002-68.551-61.648l-0.025-0.299c-0.21-2.021-0.329-4.367-0.329-6.74 0-38.191 30.96-69.151 69.151-69.151 2.374 0 4.719 0.12 7.031 0.353l-0.291-0.024zM945.205 960h-866.411c-0.033 0-0.071 0-0.11 0-43.456 0-78.685-35.228-78.685-78.685 0-0.039 0-0.077 0-0.116v0.006-866.411c0-0.033 0-0.071 0-0.11 0-43.456 35.228-78.685 78.685-78.685 0.039 0 0.077 0 0.116 0h866.405c0.033 0 0.071 0 0.11 0 43.456 0 78.685 35.228 78.685 78.685 0 0.019 0 0.039 0 0.058v-0.003 866.466c0 0.033 0 0.071 0 0.11 0 43.456-35.228 78.685-78.685 78.685-0.039 0-0.077 0-0.116 0h0.006zM938.575 270.795c-0.031-10.852-8.82-19.64-19.668-19.671h-813.811c-10.852 0.031-19.64 8.82-19.671 19.668v584.113c0.031 10.852 8.82 19.64 19.668 19.671h814.030c10.852-0.031 19.64-8.82 19.671-19.668v-584.113z" />
<glyph unicode="&#xe96a;" glyph-name="camera11111" d="M1024 672v-576c0-53-43-96-96-96h-832c-53 0-96 43-96 96v576c0 53 43 96 96 96h176l24.6 65.8c14 37.4 49.8 62.2 89.8 62.2h251c40 0 75.8-24.8 89.8-62.2l24.8-65.8h176c53 0 96-43 96-96zM752 384c0 132.4-107.6 240-240 240s-240-107.6-240-240 107.6-240 240-240 240 107.6 240 240zM688 384c0-97-79-176-176-176s-176 79-176 176 79 176 176 176 176-79 176-176z" />
<glyph unicode="&#xe96b;" glyph-name="dot11111" d="M605.091 453.818c0-64.266-52.098-116.364-116.364-116.364s-116.364 52.098-116.364 116.364c0 64.266 52.098 116.364 116.364 116.364s116.364-52.098 116.364-116.364z" />
<glyph unicode="&#xe96c;" glyph-name="eye11111" horiz-adv-x="1152" d="M1145.038 477.2c-108.46 211.62-323.18 354.8-569.040 354.8s-460.64-143.28-569.040-354.82c-4.387-8.495-6.959-18.542-6.959-29.19s2.572-20.695 7.129-29.553l-0.17 0.363c108.46-211.62 323.18-354.8 569.040-354.8s460.64 143.28 569.040 354.82c4.387 8.495 6.959 18.542 6.959 29.19s-2.572 20.695-7.129 29.553l0.17-0.363zM575.998 160c-159.058 0-288 128.942-288 288s128.942 288 288 288c159.058 0 288-128.942 288-288v0c0-0.041 0-0.091 0-0.14 0-158.981-128.879-287.86-287.86-287.86-0.049 0-0.098 0-0.147 0h0.007zM575.998 640c-18.13-0.261-35.516-3.012-51.969-7.926l1.349 0.346c11.631-15.661 18.62-35.374 18.62-56.72 0-52.854-42.846-95.7-95.7-95.7-21.346 0-41.059 6.988-56.977 18.802l0.257-0.182c-4.247-15.047-6.689-32.328-6.689-50.179 0-105.796 85.764-191.56 191.56-191.56s191.56 85.764 191.56 191.56c0 105.796-85.764 191.56-191.56 191.56-0.159 0-0.317 0-0.476-0.001h0.025z" />
<glyph unicode="&#xe96d;" glyph-name="eye_off11111" horiz-adv-x="1280" d="M639.994 160c-151.7 0-274.5 117.42-285.8 266.22l-209.8 162.14c-27.58-34.6-52.96-71.18-73.44-111.18-4.387-8.495-6.959-18.542-6.959-29.19s2.572-20.695 7.129-29.553l-0.17 0.363c108.46-211.62 323.18-354.8 569.040-354.8 53.82 0 105.74 8 155.78 20.92l-103.78 80.3c-15.55-3.151-33.498-5.043-51.857-5.219l-0.143-0.001zM1267.634 43.8l-221.1 170.88c66.318 56.14 120.801 123.919 160.761 200.48l1.739 3.66c4.387 8.495 6.959 18.542 6.959 29.19s-2.572 20.695-7.129 29.553l0.17-0.363c-108.46 211.62-323.18 354.8-569.040 354.8-108.057-0.135-209.564-28.059-297.794-77.006l3.154 1.606-254.44 196.66c-5.365 4.206-12.212 6.745-19.652 6.745-10.241 0-19.358-4.81-25.215-12.295l-0.053-0.070-39.26-50.54c-4.2-5.363-6.736-12.205-6.736-19.639 0-10.236 4.806-19.35 12.286-25.208l0.070-0.053 1176.72-909.46c5.365-4.206 12.212-6.745 19.652-6.745 10.241 0 19.358 4.81 25.215 12.295l0.053 0.070 39.28 50.54c4.196 5.361 6.728 12.2 6.728 19.63 0 10.242-4.812 19.36-12.298 25.217l-0.070 0.053zM900.194 327.8l-78.6 60.76c6.321 17.675 10.107 38.068 10.399 59.306l0.001 0.134c0.010 0.742 0.016 1.618 0.016 2.496 0 104.669-84.851 189.52-189.52 189.52-18.929 0-37.21-2.775-54.458-7.941l1.342 0.345c11.598-15.572 18.581-35.176 18.62-56.411v-0.009c-0.328-7.253-1.432-14.098-3.233-20.655l0.153 0.655-147.22 113.78c48.981 41.15 112.714 66.167 182.289 66.22h0.011c0.047 0 0.104 0 0.16 0 158.97 0 287.84-128.87 287.84-287.84 0-0.056 0-0.112 0-0.168v0.008c0-43.26-10.58-83.58-27.8-120.22z" />
<glyph unicode="&#xe96e;" glyph-name="chevron_circle_down11111" d="M1008 448c0-274-222-496-496-496s-496 222-496 496 222 496 496 496 496-222 496-496zM546 220.2l271 271c18.8 18.8 18.8 49.2 0 67.8l-34 34c-18.8 18.8-49.2 18.8-67.8 0l-203.2-203.2-203.2 203.2c-18.8 18.8-49.2 18.8-67.8 0l-34-34c-18.8-18.8-18.8-49.2 0-67.8l271-271c18.8-18.8 49.2-18.8 68 0z" />
<glyph unicode="&#xe96f;" glyph-name="chevron_circle_left11111" d="M512-48c-274 0-496 222-496 496s222 496 496 496 496-222 496-496-222-496-496-496zM284.2 414l271-271c18.8-18.8 49.2-18.8 67.8 0l34 34c18.8 18.8 18.8 49.2 0 67.8l-203.2 203.2 203.2 203.2c18.8 18.8 18.8 49.2 0 67.8l-34 34c-18.8 18.8-49.2 18.8-67.8 0l-271-271c-18.8-18.8-18.8-49.2 0-68z" />
<glyph unicode="&#xe970;" glyph-name="chevron_circle_right11111" d="M512 944c274 0 496-222 496-496s-222-496-496-496-496 222-496 496 222 496 496 496zM739.8 482l-271 271c-18.8 18.8-49.2 18.8-67.8 0l-34-34c-18.8-18.8-18.8-49.2 0-67.8l203.2-203.2-203.2-203.2c-18.8-18.8-18.8-49.2 0-67.8l34-34c18.8-18.8 49.2-18.8 67.8 0l271 271c18.8 18.8 18.8 49.2 0 68z" />
<glyph unicode="&#xe971;" glyph-name="chevron_circle_up11111" d="M16 448c0 274 222 496 496 496s496-222 496-496-222-496-496-496-496 222-496 496zM478 675.8l-271-271c-18.8-18.8-18.8-49.2 0-67.8l34-34c18.8-18.8 49.2-18.8 67.8 0l203.2 203.2 203.2-203.2c18.8-18.8 49.2-18.8 67.8 0l34 34c18.8 18.8 18.8 49.2 0 67.8l-271 271c-18.8 18.8-49.2 18.8-68 0z" />
<glyph unicode="&#xe972;" glyph-name="add_circle11111" d="M512 944c-274 0-496-222-496-496s222-496 496-496 496 222 496 496-222 496-496 496zM800 392c0-13.2-10.8-24-24-24h-184v-184c0-13.2-10.8-24-24-24h-112c-13.2 0-24 10.8-24 24v184h-184c-13.2 0-24 10.8-24 24v112c0 13.2 10.8 24 24 24h184v184c0 13.2 10.8 24 24 24h112c13.2 0 24-10.8 24-24v-184h184c13.2 0 24-10.8 24-24v-112z" />
<glyph unicode="&#xe973;" glyph-name="arrow_drop_down11111" d="M254.7 616.65h514.6c35.6 0 53.4-43 28.2-68.2l-257.2-257.4c-15.6-15.6-41-15.6-56.6 0l-257.2 257.4c-25.2 25.2-7.4 68.2 28.2 68.2z" />
<glyph unicode="&#xe974;" glyph-name="arrow_drop_right11111" d="M343.338 190.676v514.648c0 35.636 43.086 53.482 68.284 28.284l257.324-257.324c15.62-15.62 15.62-40.948 0-56.568l-257.324-257.324c-25.198-25.2-68.284-7.352-68.284 28.284z" />
<glyph unicode="&#xe975;" glyph-name="arrow_drop_up11111" d="M769.324 279.339h-514.648c-35.636 0-53.482 43.086-28.284 68.284l257.324 257.324c15.62 15.62 40.948 15.62 56.568 0l257.324-257.324c25.2-25.198 7.352-68.284-28.284-68.284z" />
<glyph unicode="&#xe976;" glyph-name="arrow_drop_left11111" d="M680.661 705.323v-514.648c0-35.636-43.086-53.482-68.284-28.284l-257.324 257.324c-15.62 15.62-15.62 40.948 0 56.568l257.324 257.324c25.198 25.2 68.284 7.352 68.284-28.284z" />
<glyph unicode="&#xe977;" glyph-name="local_grocery_store11111" d="M726 192q34 0 59-26t25-60-25-59-59-25-60 25-26 59 26 60 60 26zM42 874h140l40-84h632q18 0 30-13t12-31q0-2-6-20l-152-276q-24-44-74-44h-318l-38-70-2-6q0-10 10-10h494v-86h-512q-34 0-59 26t-25 60q0 20 10 40l58 106-154 324h-86v84zM298 192q34 0 60-26t26-60-26-59-60-25-59 25-25 59 25 60 59 26z" />
<glyph unicode="&#xe978;" glyph-name="pSIM11111" horiz-adv-x="1479" d="M1346.967 960h-1033.473c-36.567-0.026-69.635-14.985-93.44-39.108l-0.014-0.014-181.326-183.477c-23.963-24.271-38.764-57.637-38.764-94.46 0-0.024 0-0.049 0-0.073v0.004-573.116c-0.001-0.183-0.001-0.401-0.001-0.618 0-73.208 59.085-132.615 132.17-133.137h1214.798c73.112 0.551 132.168 59.947 132.168 133.136 0 0.217-0.001 0.435-0.002 0.652v-0.034 756.491c0.001 0.184 0.001 0.401 0.001 0.618 0 73.172-59.027 132.557-132.062 133.136h-0.055zM1309.227 733.918v-59.503h-180.097v116.293h123.206c31.373-0.029 56.804-25.425 56.892-56.781v-0.008zM812.256 398.559v-118.239h-181.326v118.239zM630.93 465.59v118.29h181.326v-118.29zM1129.129 422.115h180.097v-118.29h-180.097zM1129.129 489.145v118.29h180.097v-118.29zM1062.252 790.707v-678.297h-183.067v678.297zM687.924 790.707h124.383v-140.002h-181.326v83.059c0 31.449 25.494 56.943 56.943 56.943v0zM630.981 169.302v43.834h181.326v-100.777h-124.383c-0.015 0-0.033 0-0.051 0-31.449 0-56.943 25.494-56.943 56.943 0 0.054 0 0.108 0 0.162v-0.008zM1252.335 112.41h-123.206v124.23h180.097v-67.338c-0.116-31.361-25.566-56.738-56.943-56.738 0 0 0 0 0 0v0z" />
<glyph unicode="&#xe979;" glyph-name="check11111" d="M398.243 163.281l-284.486 284.439 80.198 80.198 204.241-203.683 431.802 431.802 80.198-80.803z" />
<glyph unicode="&#xe97a;" glyph-name="important3" horiz-adv-x="970" d="M954.95 407.579c0 257.684-212.216 469.895-469.897 469.895-259.579 0-469.895-212.211-469.895-469.895 0-259.579 210.316-469.897 469.895-469.897 257.682 0 469.897 210.319 469.897 469.897zM485.053 312.843c47.369 0 87.159-39.79 87.159-87.159 0-49.265-39.79-87.159-87.159-87.159-49.263 0-87.158 37.893-87.158 87.159 0 47.368 37.895 87.159 87.158 87.159zM401.684 625.474c-1.894 13.263 9.474 24.632 22.737 24.632h119.366c13.263 0 24.635-11.369 22.738-24.632l-13.263-257.685c-1.892-13.263-11.366-20.841-22.735-20.841h-92.842c-11.368 0-20.842 7.578-22.737 20.841l-13.263 257.685z" />
<glyph unicode="&#xe97b;" glyph-name="arrow_to_bottom3" horiz-adv-x="887" d="M802.133-26.665h-716.8c-29.867 0-51.2 21.333-51.2 51.2v51.2c0 27.73 21.333 51.2 51.2 51.2h716.8c27.73 0 51.2-23.47 51.2-51.2v-51.2c0-29.867-23.47-51.2-51.2-51.2zM659.2 570.667c19.2 19.199 53.333 19.199 72.537 0l36.263-36.267c19.197-19.199 19.197-51.2 0-72.533l-290.133-287.998c-19.2-21.333-51.2-21.333-70.4 0l-290.133 287.998c-19.2 19.201-19.2 53.334 0 72.533l36.267 36.267c19.2 19.199 53.333 19.199 72.533 0l140.8-140.8v448c0 27.733 21.333 51.2 51.2 51.2h51.2c27.733 0 51.2-23.467 51.2-51.2v-448l138.667 140.8z" />
<glyph unicode="&#xe97c;" glyph-name="arrow_to_down3" horiz-adv-x="896" d="M826.2 515l44.4-44.4c18.801-18.799 18.801-49.199 0-67.799l-388.6-388.8c-18.801-18.801-49.199-18.801-67.801 0l-388.798 388.8c-18.801 18.799-18.801 49.199 0 67.799l44.4 44.4c19 19 50 18.6 68.6-0.801l229.6-241v574.8c0 26.6 21.4 48 48 48h64c26.6 0 48-21.4 48-48v-574.8l229.6 241c18.6 19.602 49.6 20 68.6 0.801z" />
<glyph unicode="&#xe97d;" glyph-name="arrow_to_up3" horiz-adv-x="896" d="M69.801 381l-44.4 44.4c-18.801 18.799-18.801 49.199 0 67.799l388.6 388.8c18.801 18.801 49.199 18.801 67.801 0l388.6-388.6c18.799-18.801 18.799-49.201 0-67.801l-44.4-44.4c-19-19-50-18.6-68.6 0.801l-229.4 240.8v-574.8c0-26.6-21.4-48-48-48h-64c-26.6 0-48 21.4-48 48v574.8l-229.6-241c-18.6-19.602-49.6-20-68.6-0.801z" />
<glyph unicode="&#xe97e;" glyph-name="arrow_to_right3" horiz-adv-x="896" d="M381 826.2l44.4 44.4c18.799 18.801 49.199 18.801 67.799 0l388.8-388.6c18.801-18.801 18.801-49.199 0-67.801l-388.8-388.798c-18.799-18.801-49.199-18.801-67.799 0l-44.4 44.4c-19 19-18.6 50 0.801 68.6l241 229.6h-574.8c-26.6 0-48 21.4-48 48v64c0 26.6 21.4 48 48 48h574.8l-241 229.6c-19.602 18.6-20 49.6-0.801 68.6z" />
<glyph unicode="&#xe97f;" glyph-name="arrow_to_left3" horiz-adv-x="896" d="M515 69.801l-44.4-44.4c-18.799-18.801-49.199-18.801-67.799 0l-388.8 388.6c-18.801 18.801-18.801 49.199 0 67.801l388.8 388.798c18.799 18.801 49.199 18.801 67.799 0l44.4-44.4c19-19 18.6-50-0.801-68.6l-241-229.6h574.8c26.6 0 48-21.4 48-48v-64c0-26.6-21.4-48-48-48h-574.8l241-229.6c19.602-18.6 20-49.6 0.801-68.6z" />
<glyph unicode="&#xe980;" glyph-name="calendar3" horiz-adv-x="896" d="M0 32v544h896v-544c0-53-43-96-96-96h-704c-53 0-96 43-96 96zM640 424v-80c0-13.199 10.801-24 24-24h80c13.199 0 24 10.801 24 24v80c0 13.199-10.801 24-24 24h-80c-13.199 0-24-10.801-24-24zM640 168v-80c0-13.199 10.801-24 24-24h80c13.199 0 24 10.801 24 24v80c0 13.199-10.801 24-24 24h-80c-13.199 0-24-10.801-24-24zM384 424v-80c0-13.199 10.801-24 24-24h80c13.199 0 24 10.801 24 24v80c0 13.199-10.801 24-24 24h-80c-13.199 0-24-10.801-24-24zM384 168v-80c0-13.199 10.801-24 24-24h80c13.199 0 24 10.801 24 24v80c0 13.199-10.801 24-24 24h-80c-13.199 0-24-10.801-24-24zM128 424v-80c0-13.199 10.801-24 24-24h80c13.199 0 24 10.801 24 24v80c0 13.199-10.801 24-24 24h-80c-13.199 0-24-10.801-24-24zM128 168v-80c0-13.199 10.801-24 24-24h80c13.199 0 24 10.801 24 24v80c0 13.199-10.801 24-24 24h-80c-13.199 0-24-10.801-24-24zM800 832c53 0 96-43 96-96v-96h-896v96c0 53 43 96 96 96h96v96c0 17.6 14.4 32 32 32h64c17.6 0 32-14.4 32-32v-96h256v96c0 17.6 14.4 32 32 32h64c17.6 0 32-14.4 32-32v-96h96z" />
<glyph unicode="&#xe981;" glyph-name="file_upload3" d="M592 192h-160c-26.6 0-48 21.4-48 48v336h-175.4c-35.6 0-53.4 43-28.199 68.199l304.2 304.4c15 15 39.6 15 54.6 0l304.4-304.4c25.201-25.199 7.4-68.199-28.199-68.199h-175.4v-336c0-26.6-21.4-48-48-48zM1024 208v-224c0-26.6-21.4-48-48-48h-928c-26.6 0-48 21.4-48 48v224c0 26.6 21.4 48 48 48h272v-16c0-61.801 50.199-112 112-112h160c61.801 0 112 50.199 112 112v16h272c26.6 0 48-21.4 48-48zM776 32c0 22-18 40-40 40s-40-18-40-40 18-40 40-40 40 18 40 40zM904 32c0 22-18 40-40 40s-40-18-40-40 18-40 40-40 40 18 40 40z" />
<glyph unicode="&#xe982;" glyph-name="next_tryangle3" horiz-adv-x="1250" d="M624.814 283.119l-624.814 329.763h1249.627z" />
<glyph unicode="&#xe983;" glyph-name="login3" d="M495.616 960v-1020.343l386.121 205.093v610.158zM637.55 354.597c0-15.674-12.706-28.379-28.379-28.379s-28.379 12.706-28.379 28.379v170.35c0 15.674 12.706 28.379 28.379 28.379s28.379-12.706 28.379-28.379v0zM563.419 10.862h-338.944v386.779h33.902v-352.768h271.141v813.458h-271.141v-352.549h-33.902v386.45h338.944v-881.371zM337.481 571.465l94.208-98.743c5.224-5.459 8.439-12.878 8.439-21.047s-3.216-15.588-8.45-21.058l0.011 0.011-94.208-98.999c-5.078-5.468-12.307-8.879-20.333-8.879-7.298 0-13.938 2.821-18.889 7.431l0.017-0.015-1.463 1.463c-5.183 5.544-8.365 13.015-8.365 21.23s3.182 15.685 8.381 21.247l-0.016-0.018 45.275 47.543h-203.739c-15.972 0.812-28.615 13.961-28.615 30.062s12.643 29.249 28.543 30.059l0.072 0.003h203.886l-45.275 47.543c-5.183 5.544-8.365 13.015-8.365 21.23s3.182 15.685 8.381 21.247l-0.016-0.018c5.094 5.308 12.247 8.606 20.17 8.606 7.486 0 14.285-2.944 19.301-7.738l-0.011 0.010z" />
<glyph unicode="&#xe984;" glyph-name="icon_faq_q3" d="M512 960c-282.77 0-512-229.23-512-512s229.23-512 512-512c282.77 0 512 229.23 512 512v0c-0.437 282.594-229.406 511.564-511.959 512h-0.041zM687.232 256.853c10.969-10.021 22.831-19.717 35.211-28.745l1.184-0.823-43.221-45.525c-16.933 19.547-34.029 37.359-51.983 54.269l-0.369 0.344c-26.897-15.813-59.247-25.153-93.778-25.153-2.237 0-4.464 0.039-6.682 0.117l0.321-0.009c-2.45-0.114-5.323-0.179-8.21-0.179-51.85 0-98.812 20.93-132.898 54.802l0.010-0.010c-38.284 41.569-61.756 97.295-61.756 158.502 0 4.279 0.115 8.531 0.341 12.754l-0.025-0.589c0 136.533 81.92 227.541 204.8 227.541s202.539-88.747 202.539-225.28c0.007-0.724 0.011-1.58 0.011-2.437 0-35.143-6.691-68.724-18.869-99.537l0.639 1.835c-9.106-24.998-23.089-46.299-40.923-63.666l-0.037-0.036zM525.653 598.187c-0.933 0.028-2.030 0.043-3.131 0.043-31.763 0-60.471-13.083-81.028-34.154l-0.022-0.023c-27.124-31.525-43.639-72.853-43.639-118.040 0-4.105 0.136-8.178 0.405-12.215l-0.029 0.548c0-97.835 50.048-163.84 129.707-163.84 1.383-0.072 3.002-0.112 4.63-0.112 16.643 0 32.291 4.262 45.912 11.753l-0.494-0.249c-13.12 13.98-27.245 26.672-42.383 38.093l-0.839 0.606 45.525 43.221c13.374-15.711 27.51-29.847 42.697-42.786l0.524-0.435c21.759 27.237 34.916 62.175 34.916 100.187 0 5.588-0.284 11.109-0.839 16.55l0.056-0.684c0.136 2.647 0.214 5.746 0.214 8.864 0 45.313-16.427 86.79-43.652 118.799l0.216-0.261c-22.708 21.159-53.272 34.147-86.871 34.147-0.66 0-1.318-0.005-1.975-0.015l0.099 0.001z" />
<glyph unicode="&#xe985;" glyph-name="icon_faq_a3" d="M511.957 627.797c-3.747-11.873-7.61-21.679-12.045-31.165l0.653 1.554-56.875-161.664h136.533l-59.179 159.36c-2.81 12.74-5.938 23.418-9.682 33.802l0.594-1.887zM512 960c-282.77 0-512-229.23-512-512s229.23-512 512-512c282.77 0 512 229.23 512 512v0c-0.437 282.594-229.406 511.564-511.959 512h-0.041zM637.141 254.592c-3.191 21.269-8.748 40.414-16.497 58.393l0.582-1.518-22.741 59.179h-175.232l-22.741-59.179c-6.827-25.045-9.088-34.133-13.653-56.875h-88.747c9.518 17.146 19.447 38.111 28.146 59.704l1.422 3.997 120.619 314.027c6.028 14.371 12.247 32.541 17.401 51.154l0.817 3.46h95.573c5.268-21.259 11.492-39.455 19.070-56.929l-0.894 2.315 120.619-314.027c13.653-34.133 20.48-50.048 27.307-63.701z" />
<glyph unicode="&#xe986;" glyph-name="error3" d="M1008 448c0-273.984-222.080-496-496-496s-496 222.016-496 496c0 273.824 222.080 496 496 496s496-222.176 496-496zM512 348c-50.816 0-92-41.184-92-92s41.184-92 92-92 92 41.184 92 92-41.184 92-92 92zM424.64 678.688l14.848-272c0.704-12.736 11.232-22.688 23.968-22.688h97.088c12.736 0 23.264 9.952 23.968 22.688l14.848 272c0.736 13.76-10.208 25.312-23.968 25.312h-126.784c-13.76 0-24.704-11.552-23.968-25.312z" />
<glyph unicode="&#xe987;" glyph-name="search3" d="M1016.992 22.208c9.408-9.408 9.408-24.608 0-34.016l-45.184-45.184c-9.408-9.408-24.608-9.408-34.016 0l-242.816 242.784c-4.384 4.608-7.008 10.592-7.008 16.992v26.4c-72.992-63.008-168-101.184-272-101.184-229.792 0-416 186.208-416 416s186.208 416 416 416 416-186.208 416-416c0-104-38.208-199.008-101.184-272h26.4c6.4 0 12.384-2.4 16.992-7.008zM416 224c176.8 0 320 143.2 320 320s-143.2 320-320 320-320-143.2-320-320 143.2-320 320-320z" />
<glyph unicode="&#xe988;" glyph-name="launch_link2" d="M995.2 960c15.904 0 28.8-12.896 28.8-28.8l-0.352-326.4c0-15.904-12.896-28.8-28.8-28.8h-66.624c-15.904 0-28.8 12.896-28.8 28.8 0 0.192 0 0.384 0 0.576l5.44 147.264-4.128 4.128-557.728-557.728c-4.352-4.352-10.368-7.072-16.992-7.072s-12.64 2.688-16.992 7.072l-46.016 46.016c-4.352 4.352-7.072 10.368-7.072 16.992s2.688 12.64 7.072 16.992l557.728 557.728-4.128 4.128-147.264-5.44c-0.192 0-0.384 0-0.576 0-15.904 0-28.8 12.896-28.8 28.8v66.624c0 15.904 12.896 28.8 28.8 28.8zM864 384c17.664 0 32-14.336 32-32v-320c0-52.992-43.008-96-96-96h-704c-52.992 0-96 43.008-96 96v704c0 52.992 43.008 96 96 96h320c17.664 0 32-14.336 32-32v-32c0-17.664-14.336-32-32-32h-308c-6.624 0-12-5.376-12-12v-680c0-6.624 5.376-12 12-12h680c6.624 0 12 5.376 12 12v308c0 17.664 14.336 32 32 32h32z" />
<glyph unicode="&#xe989;" glyph-name="minus2" horiz-adv-x="768" d="M736 512c17.664 0 32-14.304 32-32v-64c0-17.664-14.336-32-32-32h-704c-17.664 0-32 14.336-32 32v64c0 17.696 14.336 32 32 32h704z" />
<glyph unicode="&#xe98a;" glyph-name="plus2" horiz-adv-x="768" d="M736 512c17.664 0 32-14.304 32-32v-64c0-17.664-14.336-32-32-32h-288v-288c0-17.664-14.304-32-32-32h-64c-17.696 0-32 14.336-32 32v288h-288c-17.664 0-32 14.336-32 32v64c0 17.696 14.336 32 32 32h288v288c0 17.696 14.304 32 32 32h64c17.696 0 32-14.304 32-32v-288h288z" />
<glyph unicode="&#xe98b;" glyph-name="phone_square_alt_secondary3" horiz-adv-x="896" d="M800 896c52.992 0 96-43.008 96-96v-704c0-52.992-43.008-96-96-96h-704c-52.992 0-96 43.008-96 96v704c0 52.992 43.008 96 96 96h704zM767.232 281.248c0.512 2.176 0.8 4.416 0.8 6.752 0 12.352-7.488 22.976-18.176 27.584l-140 60c-3.616 1.568-7.616 2.432-11.808 2.432-9.376 0-17.728-4.288-23.232-11.040l-62.016-75.776c-97.408 45.952-175.616 124.16-221.568 221.568l75.776 62.016c6.72 5.504 11.008 13.888 11.008 23.232 0 4.192-0.864 8.16-2.4 11.808l-60 140c-4.576 10.688-15.2 18.176-27.552 18.176-2.336 0-4.608-0.256-6.784-0.768l-130.016-30.016c-13.312-3.072-23.264-14.976-23.264-29.216 0-320.576 260-580 580-580v0.032c14.24 0 26.176 9.92 29.248 23.232z" />
<glyph unicode="&#xe98c;" glyph-name="file_pdf3" horiz-adv-x="768" d="M363.808 447.808c-10.016 32-9.792 93.792-4 93.792 16.8 0 15.2-73.792 4-93.792zM360.384 353.408c19.2-34.816 43.616-62.4 68.992-81.6-47.808-9.408-89.216-29.792-125.792-43.808 22.208 38.816 41.408 84.992 56.8 125.408zM172.192 103.808c11.616 31.392 56.416 67.808 69.792 80.384-43.392-69.6-69.792-82.016-69.792-80.384zM496 640h272v-656c0-26.592-21.408-48-48-48h-672c-26.592 0-48 21.408-48 48v928c0 26.592 21.408 48 48 48h400v-272c0-26.4 21.6-48 48-48zM480 296.384c-40 24.384-66.592 58.016-85.408 107.616 8.992 36.992 23.2 93.184 12.384 128.384-9.408 58.784-84.8 52.992-95.616 13.6-10.016-36.608-0.8-88.192 16.192-154.016-23.2-55.2-57.408-129.184-81.6-171.616-0.192 0-0.192-0.192-0.416-0.192-54.208-27.808-147.2-88.992-108.992-136 11.2-13.792 32-20 43.008-20 35.808 0 71.392 36 122.208 123.616 51.616 16.992 108.192 38.208 158.016 46.4 43.392-23.616 94.208-39.008 128-39.008 58.4 0 62.4 64 39.392 86.816-27.808 27.2-108.608 19.392-147.2 14.4zM754.016 749.984c8.992-8.992 14.016-21.184 14.016-33.792v-12.192h-256v256h12c12.8 0 24.992-4.992 34.016-14.016zM605.792 239.392c0 0-11.392-13.6-85.6 18.016 80.608 5.792 93.792-12.608 85.6-18.016z" />
<glyph unicode="&#xe98d;" glyph-name="times2" horiz-adv-x="640" d="M415.2 448l215.456-215.424c12.448-12.48 12.448-32.704 0-45.152l-50.048-50.048c-12.48-12.448-32.704-12.448-45.152 0l-215.424 215.456-215.424-215.456c-12.48-12.448-32.704-12.448-45.152 0l-50.048 50.048c-12.448 12.48-12.448 32.704 0 45.152l215.456 215.424-215.456 215.424c-12.448 12.48-12.448 32.704 0 45.152l50.048 50.048c12.48 12.448 32.704 12.448 45.152 0l215.424-215.456 215.424 215.456c12.48 12.448 32.704 12.448 45.152 0l50.048-50.048c12.448-12.48 12.448-32.704 0-45.152z" />
<glyph unicode="&#xe98e;" glyph-name="circle2" d="M512 944c274.016 0 496-222.016 496-496s-222.016-496-496-496-496 222.016-496 496 222.016 496 496 496zM512 48c220.992 0 400 179.008 400 400s-179.008 400-400 400-400-179.008-400-400 179.008-400 400-400z" />
<glyph unicode="&#xe98f;" glyph-name="pen2" d="M581.472 773.536l256.032-256.032-555.968-555.968-228.288-25.184c-30.56-3.392-56.384 22.464-52.992 53.024l25.408 228.448zM995.872 811.648c37.504-37.504 37.504-98.304 0-135.808l-113.088-113.088-256.032 256.032 113.088 113.088c37.504 37.504 98.336 37.504 135.808 0z" />
<glyph unicode="&#xe990;" glyph-name="arrow_down2" d="M478.2 255.5l-272 272c-18.8 18.8-18.8 49.2 0 67.8l45.2 45.2c18.8 18.8 49.2 18.8 67.8 0l192.8-192.8 192.8 192.8c18.8 18.8 49.2 18.8 67.8 0l45.2-45.2c18.8-18.8 18.8-49.2 0-67.8l-272-272c-18.4-18.8-48.8-18.8-67.6 0z" />
<glyph unicode="&#xe991;" glyph-name="arrow_left2" d="M319.388 482l272 272c18.8 18.8 49.2 18.8 67.8 0l45.2-45.2c18.8-18.8 18.8-49.2 0-67.8l-192.6-193 192.8-192.8c18.8-18.8 18.8-49.2 0-67.8l-45.2-45.4c-18.8-18.8-49.2-18.8-67.8 0l-272 272c-19 18.8-19 49.2-0.2 68z" />
<glyph unicode="&#xe992;" glyph-name="arrow_right2" d="M704.512 414l-272-272c-18.8-18.8-49.2-18.8-67.8 0l-45.2 45.2c-18.8 18.8-18.8 49.2 0 67.8l192.8 192.8-192.8 192.8c-18.8 18.8-18.8 49.2 0 67.8l45 45.6c18.8 18.8 49.2 18.8 67.8 0l272-272c19-18.8 19-49.2 0.2-68z" />
<glyph unicode="&#xe993;" glyph-name="arrow_up2" d="M546 640.612l272-272c18.8-18.8 18.8-49.2 0-67.8l-45.2-45.2c-18.8-18.8-49.2-18.8-67.8 0l-193 192.6-192.8-192.8c-18.8-18.8-49.2-18.8-67.8 0l-45.4 45.2c-18.8 18.8-18.8 49.2 0 67.8l272 272c18.8 19 49.2 19 68 0.2z" />
<glyph unicode="&#xe994;" glyph-name="copy2" d="M673.664 832h-431.147c-39.633-0.121-71.73-32.217-71.851-71.839v-503.052h71.851v503.040h431.147zM781.44 688.299h-395.179c-39.667-0.097-71.796-32.227-71.893-71.884v-503.006c0.121-39.633 32.217-71.73 71.839-71.851h395.233c39.652 0.097 71.772 32.202 71.893 71.839v503.009c-0.097 39.652-32.202 71.772-71.839 71.893h-0.012zM781.44 113.408h-395.179v502.997h395.221z" />
<glyph unicode="&#xe995;" glyph-name="call2" d="M979.437 167.23c-50.584 44.185-107.748 82.963-169.33 114.31l-4.732 2.186c-52.187 25.035-71.272 24.551-108.21-2.072-30.853-22.039-50.601-42.887-85.995-35.261s-105.123 60.429-172.782 127.823-120.33 137.388-127.823 172.782 13.224 55.272 35.261 85.995c26.445 36.936 27.372 56.021 2.072 108.21-33.384 66.414-72.236 123.654-117.464 175.158l0.793-0.921c-37.951 37.951-46.501 29.665-67.218 22.039-23.77-10.062-44.049-21.041-63.132-33.68l1.424 0.887c-31.985-18.398-57.407-45.039-73.825-77.056l-0.488-1.048c-14.723-31.779-31.779-90.93 55.009-245.333 67.321-122.944 147.356-228.578 240.594-320.904l0.11-0.109 0.528-0.528c92.471-93.281 198.097-173.309 313.913-237.118l7.1-3.586c154.27-86.787 213.598-69.729 245.333-55.009 33.229 16.725 59.959 42.194 77.765 73.414l0.472 0.899c11.752 17.659 22.731 37.939 31.841 59.209l0.952 2.5c7.493 20.717 16.044 29.267-22.17 67.218z" />
<glyph unicode="&#xe996;" glyph-name="help2" d="M515.488 928.013c187.521 0 316.513-104.001 316.513-253.504 0-99.009-48-167.49-140.511-222.017-87.009-50.494-116.511-87.489-116.511-151.487v-39.489h-173.473l-1.504 43.007c-8.511 103.007 27.489 167.010 118.016 219.999 84.512 50.494 120 82.496 120 144.514s-60 107.49-134.4 107.49c-2.25 0.144-4.882 0.223-7.53 0.223-68.715 0-124.633-54.789-126.452-123.064l-0.004-0.167h-177.634c3.489 160.993 122.494 274.496 323.49 274.496zM383.998 71.020c-0.055 1.29-0.089 2.799-0.089 4.32 0 59.275 48.052 107.327 107.327 107.327s107.327-48.052 107.327-107.327c0-59.275-48.052-107.327-107.327-107.327-0.083 0-0.163 0-0.246 0h0.014c-0.682-0.017-1.481-0.027-2.286-0.027-57.246 0-103.766 45.928-104.722 102.942l-0.001 0.090z" />
<glyph unicode="&#xe997;" glyph-name="check_circle2" d="M426 234l384 384-60 62-324-324-152 152-60-60zM512 874q176 0 301-125t125-301-125-301-301-125-301 125-125 301 125 301 301 125z" />
<glyph unicode="&#xe998;" glyph-name="eSIM3" d="M0 504.875h455.125v455.125h-455.125zM113.792 846.208h227.541v-227.541h-227.541zM0-64h455.125v455.125h-455.125zM113.792 277.333h227.541v-227.541h-227.541zM568.875 960v-455.125h455.125v455.125zM910.208 618.667h-227.541v227.541h227.541zM910.251 49.749h113.792v-113.792h-113.792v113.792zM568.918 391.082h113.792v-113.792h-113.792v113.792zM682.667 277.333h113.792v-113.792h-113.792v113.792zM568.918 163.541h113.792v-113.792h-113.792v113.792zM682.667 49.749h113.792v-113.792h-113.792v113.792zM796.459 163.541h113.792v-113.792h-113.792v113.792zM796.459 391.082h113.792v-113.792h-113.792v113.792zM910.251 277.333h113.792v-113.792h-113.792v113.792z" />
<glyph unicode="&#xe999;" glyph-name="close3" d="M50.196 120.34c-17.678-16.581-28.691-40.087-28.691-66.168s11.013-49.584 28.642-66.12l0.048-0.045c17.192-16.354 40.506-26.416 66.168-26.416s48.973 10.062 66.207 26.453l-0.039-0.037 329.926 326.3 327.206-327.206c17.129-17.242 40.855-27.915 67.073-27.915 52.209 0 94.534 42.325 94.534 94.534 0 25.994-10.491 49.535-27.466 66.624l0.005-0.005-329.017 327.206 329.017 329.017c17.678 16.581 28.691 40.087 28.691 66.168s-11.013 49.584-28.642 66.12l-0.048 0.045c-16.665 18.529-40.72 30.131-67.484 30.131-26.334 0-50.045-11.231-66.604-29.164l-0.056-0.061-327.206-328.112-329.017 328.112c-17.134 16.083-40.259 25.965-65.688 25.965-25.893 0-49.394-10.244-66.672-26.9l0.031 0.030c-17.678-16.581-28.691-40.087-28.691-66.168s11.013-49.584 28.642-66.12l0.048-0.045 328.112-329.017z" />
<glyph unicode="&#xe99a;" glyph-name="arrow_up_circle2" d="M512.399-64c-0.237 0-0.517-0.001-0.798-0.001-282.99 0-512.399 229.409-512.399 512.399s229.409 512.399 512.399 512.399c282.99 0 512.399-229.409 512.399-512.399 0-0.28 0-0.561-0.001-0.841v0.044c-0.904-282.185-229.416-510.696-511.514-511.601h-0.087zM512.399 866.619c-231.417 0-419.018-187.601-419.018-419.018s187.601-419.018 419.018-419.018c231.417 0 419.018 187.601 419.018 419.018v0c0 231.417-187.601 419.018-419.018 419.018v0zM698.363 401.309c-12.781 0.006-24.35 5.19-32.723 13.568l-153.241 153.241-153.241-153.241c-8.033-6.574-18.408-10.558-29.713-10.558-26.007 0-47.090 21.083-47.090 47.090 0 11.305 3.984 21.68 10.624 29.797l-0.067-0.084 185.964 185.964c8.504 8.418 20.206 13.618 33.122 13.618s24.619-5.201 33.126-13.622l185.96-185.96c8.192-8.462 13.241-20.010 13.241-32.737 0-25.611-20.446-46.447-45.906-47.075l-0.058-0.001zM512.399 215.345c-0.237-0.004-0.517-0.007-0.798-0.007-25.566 0-46.292 20.725-46.292 46.292 0 0.002 0 0.005 0 0.007v0 372.726c3.132 23.242 22.841 40.972 46.691 40.972s43.559-17.731 46.664-40.73l0.027-0.243v-372.726c0-25.566-20.725-46.292-46.292-46.292v0z" />
<glyph unicode="&#xe99b;" glyph-name="ok2" d="M512-64c-282.77 0-512 229.23-512 512s229.23 512 512 512c282.77 0 512-229.23 512-512v0c0-282.77-229.23-512-512-512v0zM512 832c-212.077 0-384-171.923-384-384s171.923-384 384-384c212.077 0 384 171.923 384 384v0c0 212.077-171.923 384-384 384v0z" />
<glyph unicode="&#xe99c;" glyph-name="launch2" d="M864 320h-64c-17.673 0-32-14.327-32-32v0-224h-640v640h288c17.673 0 32 14.327 32 32v0 64c0 17.673-14.327 32-32 32v0h-320c-53.019 0-96-42.981-96-96v0-704c0-53.019 42.981-96 96-96v0h704c53.019 0 96 42.981 96 96v0 256c0 17.673-14.327 32-32 32v0zM976 960h-256c-42.74 0-64.1-51.82-34-82l71.46-71.46-487.46-487.28c-8.721-8.692-14.118-20.716-14.118-34s5.396-25.308 14.116-33.999l0.001-0.001 45.34-45.26c8.692-8.721 20.716-14.118 34-14.118s25.308 5.396 33.999 14.116l487.221 487.361 71.44-71.36c30-30 82-9 82 34v256c0 26.51-21.49 48-48 48v0z" />
<glyph unicode="&#xe99d;" glyph-name="picture_as_pdf2" d="M491.8 447.8c-10 32-9.8 93.8-4 93.8 16.8 0 15.2-73.8 4-93.8zM488.4 353.4c-15.4-40.4-34.6-86.6-56.8-125.4 36.6 14 78 34.4 125.8 43.8-25.4 19.2-49.8 46.8-69 81.6zM300.2 103.8c0-1.6 26.4 10.8 69.8 80.4-13.4-12.6-58.2-49-69.8-80.4zM624 640h272v-656c0-26.6-21.4-48-48-48h-672c-26.6 0-48 21.4-48 48v928c0 26.6 21.4 48 48 48h400v-272c0-26.4 21.6-48 48-48zM608 296.4c-40 24.4-66.6 58-85.4 107.6 9 37 23.2 93.2 12.4 128.4-9.4 58.8-84.8 53-95.6 13.6-10-36.6-0.8-88.2 16.2-154-23.2-55.2-57.4-129.2-81.6-171.6-0.2 0-0.2-0.2-0.4-0.2-54.2-27.8-147.2-89-109-136 11.2-13.8 32-20 43-20 35.8 0 71.4 36 122.2 123.6 51.6 17 108.2 38.2 158 46.4 43.4-23.6 94.2-39 128-39 58.4 0 62.4 64 39.4 86.8-27.8 27.2-108.6 19.4-147.2 14.4zM882 750l-196 196c-9 9-21.2 14-34 14h-12v-256h256v12.2c0 12.6-5 24.8-14 33.8zM733.8 239.4c8.2 5.4-5 23.8-85.6 18 74.2-31.6 85.6-18 85.6-18z" />
<glyph unicode="&#xe99e;" glyph-name="ng2" d="M614.22 448l307.827 307.827c13.592 13.132 22.023 31.526 22.023 51.886 0 39.835-32.294 72.121-72.121 72.121-20.36 0-38.755-8.432-51.861-22.005l-0.024-0.025-307.827-307.827-307.827 307.827c-13.132 13.592-31.526 22.023-51.886 22.023-39.835 0-72.121-32.294-72.121-72.121 0-20.36 8.432-38.755 22.005-51.861l0.025-0.024 307.827-307.827-307.827-307.827c-12.524-12.955-20.235-30.624-20.235-50.097 0-39.835 32.294-72.121 72.121-72.121 19.473 0 37.142 7.72 50.123 20.259l-0.025-0.024 307.827 307.827 307.827-307.827c12.955-12.524 30.624-20.235 50.097-20.235 39.835 0 72.121 32.294 72.121 72.121 0 19.473-7.72 37.142-20.259 50.123l0.024-0.025z" />
<glyph unicode="&#xe99f;" glyph-name="trash2" d="M185.125 795.429l60.709-747.52c0-0.022 0-0.047 0-0.073 0-41.567 33.697-75.264 75.264-75.264 0.026 0 0.051 0 0.077 0h362.858c0.022 0 0.047 0 0.073 0 41.567 0 75.264 33.697 75.264 75.264 0 0.026 0 0.051 0 0.077v-0.004l59.611 747.52zM343.552 114.030l-17.262 599.113h47.543l17.627-599.113zM524.288 114.030h-46.226v599.113h46.299zM658.798 114.030h-47.909l17.481 599.113h47.543zM779.118 888.027h-92.818l-67.657 59.173c-9.027 7.917-20.906 12.778-33.918 12.873h-166.639c-13.205-0.041-25.265-4.908-34.516-12.929l0.066 0.056-67.657-59.173h-92.745c-45.275 0-77.166-21.943-77.166-66.853h709.486c0.512 45.202-31.378 66.853-76.434 66.853z" />
<glyph unicode="&#xe9a0;" glyph-name="add_circle_inverse2" d="M512 960c-282.77 0-512-229.23-512-512s229.23-512 512-512c282.77 0 512 229.23 512 512v0c0 282.77-229.23 512-512 512v0zM734.764 408.62h-183.384v-183.384c0-21.749-17.631-39.38-39.38-39.38s-39.38 17.631-39.38 39.38v0 183.384h-183.384c-21.749 0-39.38 17.631-39.38 39.38s17.631 39.38 39.38 39.38v0h183.384v183.384c0 21.749 17.631 39.38 39.38 39.38s39.38-17.631 39.38-39.38v0-183.384h183.384c21.749 0 39.38-17.631 39.38-39.38s-17.631-39.38-39.38-39.38v0z" />
<glyph unicode="&#xe9a1;" glyph-name="help_circle2" d="M1008 448c0-273.994-222.086-496-496-496s-496 222.006-496 496c0 273.834 222.086 496 496 496s496-222.166 496-496zM525.31 780c-108.994 0-178.51-45.914-233.098-127.516-7.072-10.572-4.706-24.83 5.43-32.516l69.398-52.62c10.41-7.894 25.242-6.016 33.33 4.244 35.728 45.316 60.226 71.594 114.606 71.594 40.858 0 91.396-26.296 91.396-65.916 0-29.952-24.726-45.334-65.068-67.952-47.048-26.374-109.304-59.2-109.304-141.318v-8c0-13.254 10.746-24 24-24h112c13.254 0 24 10.746 24 24v2.666c0 56.924 166.372 59.294 166.372 213.334 0 116.004-120.33 204-233.062 204zM512 284c-50.73 0-92-41.27-92-92 0-50.728 41.27-92 92-92s92 41.272 92 92c0 50.73-41.27 92-92 92z" />
<glyph unicode="&#xe9a2;" glyph-name="phone_android2" d="M736 192v598h-448v-598h448zM598 64v42h-172v-42h172zM682 918q52 0 90-38t38-90v-684q0-52-38-90t-90-38h-340q-52 0-90 38t-38 90v684q0 52 38 90t90 38h340z" />
<glyph unicode="&#xe9a3;" glyph-name="phone_iphone2" d="M682 192v598h-384v-598h384zM490 22q26 0 45 19t19 45-19 45-45 19-45-19-19-45 19-45 45-19zM662 918q44 0 75-32t31-76v-724q0-44-31-76t-75-32h-342q-44 0-75 32t-31 76v724q0 44 31 76t75 32h342z" />
<glyph unicode="&#xe9a4;" glyph-name="image2" d="M159.014 309.425h469.425c7.566 0 13.699 6.133 13.699 13.699 0 3.099-1.029 5.958-2.765 8.254l0.025-0.034-234.74 377.315c-2.483 3.584-6.573 5.901-11.205 5.901s-8.723-2.318-11.176-5.856l-0.029-0.045-234.521-377.589c-1.526-2.19-2.439-4.906-2.439-7.836 0-7.597 6.136-13.762 13.722-13.808h0.004zM636.822 452.164l86.137-136.986c2.402-3.559 6.405-5.878 10.953-5.918h130.965c7.566 0 13.699 6.133 13.699 13.699 0 3.099-1.029 5.958-2.765 8.254l0.025-0.034-151.397 215.452c-2.483 3.584-6.573 5.901-11.205 5.901s-8.723-2.318-11.176-5.856l-0.029-0.045-65.479-79.014c-1.351-2.133-2.153-4.73-2.153-7.515 0-2.961 0.907-5.711 2.459-7.986l-0.032 0.049zM746.082 664.877c34.945 3.664 61.947 32.967 61.947 68.577 0 38.070-30.862 68.932-68.932 68.932-35.61 0-64.913-27.002-68.551-61.648l-0.025-0.299c-0.21-2.021-0.329-4.367-0.329-6.74 0-38.191 30.96-69.151 69.151-69.151 2.374 0 4.719 0.12 7.031 0.353l-0.291-0.024zM945.205 960h-866.411c-0.033 0-0.071 0-0.11 0-43.456 0-78.685-35.228-78.685-78.685 0-0.039 0-0.077 0-0.116v0.006-866.411c0-0.033 0-0.071 0-0.11 0-43.456 35.228-78.685 78.685-78.685 0.039 0 0.077 0 0.116 0h866.405c0.033 0 0.071 0 0.11 0 43.456 0 78.685 35.228 78.685 78.685 0 0.019 0 0.039 0 0.058v-0.003 866.466c0 0.033 0 0.071 0 0.11 0 43.456-35.228 78.685-78.685 78.685-0.039 0-0.077 0-0.116 0h0.006zM938.575 270.795c-0.031-10.852-8.82-19.64-19.668-19.671h-813.811c-10.852 0.031-19.64 8.82-19.671 19.668v584.113c0.031 10.852 8.82 19.64 19.668 19.671h814.030c10.852-0.031 19.64-8.82 19.671-19.668v-584.113z" />
<glyph unicode="&#xe9a5;" glyph-name="camera2" d="M1024 672v-576c0-53-43-96-96-96h-832c-53 0-96 43-96 96v576c0 53 43 96 96 96h176l24.6 65.8c14 37.4 49.8 62.2 89.8 62.2h251c40 0 75.8-24.8 89.8-62.2l24.8-65.8h176c53 0 96-43 96-96zM752 384c0 132.4-107.6 240-240 240s-240-107.6-240-240 107.6-240 240-240 240 107.6 240 240zM688 384c0-97-79-176-176-176s-176 79-176 176 79 176 176 176 176-79 176-176z" />
<glyph unicode="&#xe9a6;" glyph-name="dot2" d="M605.091 453.818c0-64.266-52.098-116.364-116.364-116.364s-116.364 52.098-116.364 116.364c0 64.266 52.098 116.364 116.364 116.364s116.364-52.098 116.364-116.364z" />
<glyph unicode="&#xe9a7;" glyph-name="eye2" horiz-adv-x="1152" d="M1145.038 477.2c-108.46 211.62-323.18 354.8-569.040 354.8s-460.64-143.28-569.040-354.82c-4.387-8.495-6.959-18.542-6.959-29.19s2.572-20.695 7.129-29.553l-0.17 0.363c108.46-211.62 323.18-354.8 569.040-354.8s460.64 143.28 569.040 354.82c4.387 8.495 6.959 18.542 6.959 29.19s-2.572 20.695-7.129 29.553l0.17-0.363zM575.998 160c-159.058 0-288 128.942-288 288s128.942 288 288 288c159.058 0 288-128.942 288-288v0c0-0.041 0-0.091 0-0.14 0-158.981-128.879-287.86-287.86-287.86-0.049 0-0.098 0-0.147 0h0.007zM575.998 640c-18.13-0.261-35.516-3.012-51.969-7.926l1.349 0.346c11.631-15.661 18.62-35.374 18.62-56.72 0-52.854-42.846-95.7-95.7-95.7-21.346 0-41.059 6.988-56.977 18.802l0.257-0.182c-4.247-15.047-6.689-32.328-6.689-50.179 0-105.796 85.764-191.56 191.56-191.56s191.56 85.764 191.56 191.56c0 105.796-85.764 191.56-191.56 191.56-0.159 0-0.317 0-0.476-0.001h0.025z" />
<glyph unicode="&#xe9a8;" glyph-name="eye_off2" horiz-adv-x="1280" d="M639.994 160c-151.7 0-274.5 117.42-285.8 266.22l-209.8 162.14c-27.58-34.6-52.96-71.18-73.44-111.18-4.387-8.495-6.959-18.542-6.959-29.19s2.572-20.695 7.129-29.553l-0.17 0.363c108.46-211.62 323.18-354.8 569.040-354.8 53.82 0 105.74 8 155.78 20.92l-103.78 80.3c-15.55-3.151-33.498-5.043-51.857-5.219l-0.143-0.001zM1267.634 43.8l-221.1 170.88c66.318 56.14 120.801 123.919 160.761 200.48l1.739 3.66c4.387 8.495 6.959 18.542 6.959 29.19s-2.572 20.695-7.129 29.553l0.17-0.363c-108.46 211.62-323.18 354.8-569.040 354.8-108.057-0.135-209.564-28.059-297.794-77.006l3.154 1.606-254.44 196.66c-5.365 4.206-12.212 6.745-19.652 6.745-10.241 0-19.358-4.81-25.215-12.295l-0.053-0.070-39.26-50.54c-4.2-5.363-6.736-12.205-6.736-19.639 0-10.236 4.806-19.35 12.286-25.208l0.070-0.053 1176.72-909.46c5.365-4.206 12.212-6.745 19.652-6.745 10.241 0 19.358 4.81 25.215 12.295l0.053 0.070 39.28 50.54c4.196 5.361 6.728 12.2 6.728 19.63 0 10.242-4.812 19.36-12.298 25.217l-0.070 0.053zM900.194 327.8l-78.6 60.76c6.321 17.675 10.107 38.068 10.399 59.306l0.001 0.134c0.010 0.742 0.016 1.618 0.016 2.496 0 104.669-84.851 189.52-189.52 189.52-18.929 0-37.21-2.775-54.458-7.941l1.342 0.345c11.598-15.572 18.581-35.176 18.62-56.411v-0.009c-0.328-7.253-1.432-14.098-3.233-20.655l0.153 0.655-147.22 113.78c48.981 41.15 112.714 66.167 182.289 66.22h0.011c0.047 0 0.104 0 0.16 0 158.97 0 287.84-128.87 287.84-287.84 0-0.056 0-0.112 0-0.168v0.008c0-43.26-10.58-83.58-27.8-120.22z" />
<glyph unicode="&#xe9a9;" glyph-name="chevron_circle_down2" d="M1008 448c0-274-222-496-496-496s-496 222-496 496 222 496 496 496 496-222 496-496zM546 220.2l271 271c18.8 18.8 18.8 49.2 0 67.8l-34 34c-18.8 18.8-49.2 18.8-67.8 0l-203.2-203.2-203.2 203.2c-18.8 18.8-49.2 18.8-67.8 0l-34-34c-18.8-18.8-18.8-49.2 0-67.8l271-271c18.8-18.8 49.2-18.8 68 0z" />
<glyph unicode="&#xe9aa;" glyph-name="chevron_circle_left2" d="M512-48c-274 0-496 222-496 496s222 496 496 496 496-222 496-496-222-496-496-496zM284.2 414l271-271c18.8-18.8 49.2-18.8 67.8 0l34 34c18.8 18.8 18.8 49.2 0 67.8l-203.2 203.2 203.2 203.2c18.8 18.8 18.8 49.2 0 67.8l-34 34c-18.8 18.8-49.2 18.8-67.8 0l-271-271c-18.8-18.8-18.8-49.2 0-68z" />
<glyph unicode="&#xe9ab;" glyph-name="chevron_circle_right2" d="M512 944c274 0 496-222 496-496s-222-496-496-496-496 222-496 496 222 496 496 496zM739.8 482l-271 271c-18.8 18.8-49.2 18.8-67.8 0l-34-34c-18.8-18.8-18.8-49.2 0-67.8l203.2-203.2-203.2-203.2c-18.8-18.8-18.8-49.2 0-67.8l34-34c18.8-18.8 49.2-18.8 67.8 0l271 271c18.8 18.8 18.8 49.2 0 68z" />
<glyph unicode="&#xe9ac;" glyph-name="chevron_circle_up2" d="M16 448c0 274 222 496 496 496s496-222 496-496-222-496-496-496-496 222-496 496zM478 675.8l-271-271c-18.8-18.8-18.8-49.2 0-67.8l34-34c18.8-18.8 49.2-18.8 67.8 0l203.2 203.2 203.2-203.2c18.8-18.8 49.2-18.8 67.8 0l34 34c18.8 18.8 18.8 49.2 0 67.8l-271 271c-18.8 18.8-49.2 18.8-68 0z" />
<glyph unicode="&#xe9ad;" glyph-name="add_circle2" d="M512 944c-274 0-496-222-496-496s222-496 496-496 496 222 496 496-222 496-496 496zM800 392c0-13.2-10.8-24-24-24h-184v-184c0-13.2-10.8-24-24-24h-112c-13.2 0-24 10.8-24 24v184h-184c-13.2 0-24 10.8-24 24v112c0 13.2 10.8 24 24 24h184v184c0 13.2 10.8 24 24 24h112c13.2 0 24-10.8 24-24v-184h184c13.2 0 24-10.8 24-24v-112z" />
<glyph unicode="&#xe9ae;" glyph-name="arrow_drop_down2" d="M254.7 616.65h514.6c35.6 0 53.4-43 28.2-68.2l-257.2-257.4c-15.6-15.6-41-15.6-56.6 0l-257.2 257.4c-25.2 25.2-7.4 68.2 28.2 68.2z" />
<glyph unicode="&#xe9af;" glyph-name="arrow_drop_right2" d="M343.338 190.676v514.648c0 35.636 43.086 53.482 68.284 28.284l257.324-257.324c15.62-15.62 15.62-40.948 0-56.568l-257.324-257.324c-25.198-25.2-68.284-7.352-68.284 28.284z" />
<glyph unicode="&#xe9b0;" glyph-name="arrow_drop_up2" d="M769.324 279.339h-514.648c-35.636 0-53.482 43.086-28.284 68.284l257.324 257.324c15.62 15.62 40.948 15.62 56.568 0l257.324-257.324c25.2-25.198 7.352-68.284-28.284-68.284z" />
<glyph unicode="&#xe9b1;" glyph-name="arrow_drop_left2" d="M680.661 705.323v-514.648c0-35.636-43.086-53.482-68.284-28.284l-257.324 257.324c-15.62 15.62-15.62 40.948 0 56.568l257.324 257.324c25.198 25.2 68.284 7.352 68.284-28.284z" />
<glyph unicode="&#xe9b2;" glyph-name="local_grocery_store2" d="M726 192q34 0 59-26t25-60-25-59-59-25-60 25-26 59 26 60 60 26zM42 874h140l40-84h632q18 0 30-13t12-31q0-2-6-20l-152-276q-24-44-74-44h-318l-38-70-2-6q0-10 10-10h494v-86h-512q-34 0-59 26t-25 60q0 20 10 40l58 106-154 324h-86v84zM298 192q34 0 60-26t26-60-26-59-60-25-59 25-25 59 25 60 59 26z" />
</font>
</defs>
</svg>
